Скачать через торрент музыку The Go-Gos - Beauty and the Beat 30th Anniversary - 1981 бесплатно без регистрации torrent

Если у вас наблюдаются проблемы со скриншотами, переходом по ссылками, скачиванием торрентов - проблемы в блокировщике рекламы AdBlock. #хорошегоДня!


Статистика раздачи
Размер:  594 MB   |    Зарегистрирован:  4 года 8 месяцев   |    .torrent скачан:  43 раза   |   
Раздают:  1  
   
Загрузка...
 
Автор Сообщение

Galfimbul

avatar Galfimbul


The Go-Go's / Beauty and the Beat 30th Anniversary

Жанр: New Wave, Pop Rock
Страна-производитель диска: USA
Год издания: 1981 (2011)
Издатель (лейбл): I.R.S.
Номер по каталогу: 5099902702728
Страна: USA
Аудиокодек: FLAC (*.flac)
Тип рипа: image+.cue
Битрейт аудио: lossless
Продолжительность: 35:35 + 53:10
Источник (релизер): Собственный рип
Наличие сканов в содержимом раздачи: нет
Треклист:
CD1:
1. Our Lips Are Sealed [Original Album Remastered]
2. How Much More [Original Album Remastered]
3. Tonite [Original Album Remastered]
4. Lust To Love [Original Album Remastered]
5. This Town [Original Album Remastered]
6. We Got The Beat [Original Album Remastered]
7. Fading Fast [Original Album Remastered]
8. Automatic [Original Album Remastered]
9. You Can't Walk In Your Sleep (If You Can't Sleep) [Original Album Remastered]
10. Skidmarks On Your Heart [Original Album Remastered]
11. Can't Stop The World [Original Album Remastered]
CD2:
1. Skidmarks On My Heart [Live At The Metro In Boston 1981]
2. How Much More [Live At The Metro In Boston 1981]
3. Tonight [Live At The Metro In Boston 1981]
4. Fading Fast [Live At The Metro In Boston 1981]
5. London Boys [Live At The Metro In Boston 1981]
6. Cool Jerk [Live At The Metro In Boston 1981]
7. Automatic [Live At The Metro In Boston 1981]
8. Lust To Love [Live At The Metro In Boston 1981]
9. Can't Stop The World [Live At The Metro In Boston 1981]
10. This Town [Live At The Metro In Boston 1981]
11. You Can't Walk In Your Sleep (If You Can't Sleep) [Live At The Metro In Boston 1981]
12. Our Lips Are Sealed [Live At The Metro In Boston 1981]
13. Let's Have A Party [Live At The Metro In Boston 1981]
14. We Got The Beat [Live At The Metro In Boston 1981]
15. Surfing And Spying [Live At The Metro In Boston 1981]
16. Remember (Walking In The Sand) [Live At The Metro In Boston 1981]
17. Vacation [Live At The Metro In Boston 1981]
Exact Audio Copy V1.0 beta 3 from 29. August 2011

Отчёт EAC об извлечении, выполненном 10. ноября 2012, 20:21

The Go-Go's / Beauty And The Beat (30th Anniversary Edition) Disc 1

Дисковод: Optiarc BDRW BD-M100A Adapter: 1 ID: 0

Режим чтения : ДостоверностьИспользование точного потока : ДаОтключение кэша аудио : НетИспользование указателей C2 : Нет

Коррекция смещения при чтении : 102Способность читать области Lead-in и Lead-out : НетЗаполнение пропущенных сэмплов тишиной : ДаУдаление блоков с тишиной в начале и конце : НетПри вычислениях CRC использовались нулевые сэмплы : ДаИнтерфейс : Встроенный Win32-интерфейс для Win NT/2000

Выходной формат : Пользовательский кодировщикВыбранный битрейт : 768 kBit/sКачество : ВысокийДобавление ID3-тега : НетУтилита сжатия : C:\Program Files (x86)\Exact Audio Copy\FLAC\FLAC.EXEДополнительные параметры : -6 -V -T "ARTIST=%artist%" -T "TITLE=%title%" -T "ALBUM=%albumtitle%" -T "DATE=%year%" -T"TRACKNUMBER=%tracknr%" -T "GENRE=%genre%" -T "COMMENT=%comment%" -T "BAND=%albuminterpret%" -T "ALBUMARTIST=%albuminterpret%" -T "COMPOSER=%composer%" %haslyrics%--tag-from-file=LYRICS="%lyricsfile%"%haslyrics% -T"DISCNUMBER=%cdnumber%" -T "TOTALDISCS=%totalcds%" -T "TOTALTRACKS=%numtracks%" %hascover%--picture="%coverfile%"%hascover% %source% -o %dest%

TOC извлечённого CD

Трек | Старт | Длительность | Начальный сектор | Конечный сектор --------------------------------------------------------------------- 1 | 0:00.00 | 2:48.41 | 0 | 12640 2 | 2:48.41 | 3:05.74 | 12641 | 26589 3 | 5:54.40 | 3:34.45 | 26590 | 42684 4 | 9:29.10 | 4:05.53 | 42685 | 61112 5 | 13:34.63 | 3:19.25 | 61113 | 76062 6 | 16:54.13 | 2:31.08 | 76063 | 87395 7 | 19:25.21 | 3:39.37 | 87396 | 103857 8 | 23:04.58 | 3:10.34 | 103858 | 118141 9 | 26:15.17 | 2:53.49 | 118142 | 131165 10 | 29:08.66 | 3:07.30 | 131166 | 145220 11 | 32:16.21 | 3:18.60 | 145221 | 160130

Характеристики диапазона извлечения и сообщения об ошибках

Выбранный диапазон

Имя файла C:\Users\Anton\Music\Music\the go-go's\1981 - beauty and the beat 30th anniversary edition\CD1\The Go-Go's - Beauty And The Beat (30th Anniversary Edition) Disc 1.wav

Пиковый уровень 98.8 % Скорость извлечения 7.0 X Качество диапазона 99.9 % CRC теста 06F36634 CRC копии 06F36634 Копирование... OK

Ошибок не произошло

AccurateRip: сводка

Трек 1 : извлечено точно (доверие 4) [584C6D01] (AR v2)Трек 2 : извлечено точно (доверие 3) [70A06B4C] (AR v2)Трек 3 : извлечено точно (доверие 3) [8DF14656] (AR v2)Трек 4 : извлечено точно (доверие 3) [84AB2B26] (AR v2)Трек 5 : извлечено точно (доверие 3) [D7C20E03] (AR v2)Трек 6 : извлечено точно (доверие 3) [3FE41D0D] (AR v2)Трек 7 : извлечено точно (доверие 3) [89E3783E] (AR v2)Трек 8 : извлечено точно (доверие 3) [6E90E78D] (AR v2)Трек 9 : извлечено точно (доверие 3) [ADEE1F75] (AR v2)Трек 10 : извлечено точно (доверие 3) [1917106E] (AR v2)Трек 11 : извлечено точно (доверие 3) [A1639F66] (AR v2)

Все треки извлечены точно

Конец отчёта

---- CUETools DB Plugin V2.1.3

[CTDB TOCID: gWZ47kiSwgFgXhOURv7JPEqHsHE-] found, Submit result: already submitted[d3aa7613] (8/8) Accurately ripped

Exact Audio Copy V1.0 beta 3 from 29. August 2011

Отчёт EAC об извлечении, выполненном 10. ноября 2012, 20:40

The Go-Go's / Beauty And The Beat (30th Anniversary Edition) Disc 2

Дисковод: Optiarc BDRW BD-M100A Adapter: 1 ID: 0

Режим чтения : ДостоверностьИспользование точного потока : ДаОтключение кэша аудио : НетИспользование указателей C2 : Нет

Коррекция смещения при чтении : 102Способность читать области Lead-in и Lead-out : НетЗаполнение пропущенных сэмплов тишиной : ДаУдаление блоков с тишиной в начале и конце : НетПри вычислениях CRC использовались нулевые сэмплы : ДаИнтерфейс : Встроенный Win32-интерфейс для Win NT/2000

Выходной формат : Пользовательский кодировщикВыбранный битрейт : 768 kBit/sКачество : ВысокийДобавление ID3-тега : НетУтилита сжатия : C:\Program Files (x86)\Exact Audio Copy\FLAC\FLAC.EXEДополнительные параметры : -6 -V -T "ARTIST=%artist%" -T "TITLE=%title%" -T "ALBUM=%albumtitle%" -T"DATE=%year%" -T "TRACKNUMBER=%tracknr%" -T "GENRE=%genre%" -T "COMMENT=%comment%" -T "BAND=%albuminterpret%" -T "ALBUMARTIST=%albuminterpret%" -T "COMPOSER=%composer%"%haslyrics%--tag-from-file=LYRICS="%lyricsfile%"%haslyrics% -T "DISCNUMBER=%cdnumber%" -T"TOTALDISCS=%totalcds%" -T "TOTALTRACKS=%numtracks%" %hascover%--picture="%coverfile%"%hascover% %source% -o %dest%

TOC извлечённого CD

Трек | Старт | Длительность | Начальный сектор | Конечный сектор --------------------------------------------------------------------- 1 | 0:00.00 | 3:00.37 | 0 | 13536 2 | 3:00.37 | 2:55.53 | 13537 | 26714 3 | 5:56.15 | 3:45.68 | 26715 | 43657 4 | 9:42.08 | 3:19.43 | 43658 | 58625 5 | 13:01.51 | 2:31.29 | 58626 | 69979 6 | 15:33.05 | 3:20.63 | 69980 | 85042 7 | 18:53.68 | 2:42.35 | 85043 | 97227 8 | 21:36.28 | 3:48.00 | 97228 | 114327 9 | 25:24.28 | 4:05.29 | 114328 | 132731 10 | 29:29.57 | 2:03.14 | 132732 | 141970 11 | 31:32.71 | 3:14.05 | 141971 | 156525 12 | 34:47.01 | 3:17.24 | 156526 | 171324 13 | 38:04.25 | 1:25.39 | 171325 | 177738 14 | 39:29.64 | 3:06.05 | 177739 | 191693 15 | 42:35.69 | 4:10.04 | 191694 | 210447 16 | 46:45.73 | 3:17.15 | 210448 | 225237 17 | 50:03.13 | 3:06.32 | 225238 | 239219

Характеристики диапазона извлечения и сообщения об ошибках

Выбранный диапазон

Имя файла C:\Users\Anton\Music\Music\the go-go's\1981 - beauty and the beat 30th anniversary edition\CD2\The Go-Go's - Beauty And The Beat (30th Anniversary Edition) Disc 2.wav

Пиковый уровень 98.8 % Скорость извлечения 7.7 X Качество диапазона 100.0 % CRC теста AA1C5AF4 CRC копии AA1C5AF4 Копирование... OK

Ошибок не произошло

AccurateRip: сводка

Трек 1 : извлечено точно (доверие 2) [D4F6D823] (AR v2)Трек 2 : извлечено точно (доверие 2) [13BB217C] (AR v2)Трек 3 : извлечено точно (доверие 2) [62A63D88] (AR v2)Трек 4 : извлечено точно (доверие 2) [060C07AF] (AR v2)Трек 5 : извлечено точно (доверие 2) [2E733226] (AR v2)Трек 6 : извлечено точно (доверие 2) [1792BAB7] (AR v2)Трек 7 : извлечено точно (доверие 2) [E12974A4] (AR v2)Трек 8 : извлечено точно (доверие 2) [FCD6F3ED] (AR v2)Трек 9 : извлечено точно (доверие 2) [1D0A6262] (AR v2)Трек 10 : извлечено точно (доверие 2) [93BB93CA] (AR v2)Трек 11 : извлечено точно (доверие 2) [654F7DB0] (AR v2)Трек 12 : извлечено точно (доверие 2) [EC2FF132] (AR v2)Трек 13 : извлечено точно (доверие 2) [5539F1A4] (AR v2)Трек 14 : извлечено точно (доверие 2) [7B89E4CF] (AR v2)Трек 15 : извлечено точно (доверие 2) [3AEB166B] (AR v2)Трек 16 : извлечено точно (доверие 2) [CE91C315] (AR v2)Трек 17 : извлечено точно (доверие 2) [930C290C] (AR v2)

Все треки извлечены точно

Конец отчёта

---- CUETools DB Plugin V2.1.3

[CTDB TOCID: XUfmxPMvyqWGudD_iC0Sj4PmAqg-] found, Submit result: XUfmxPMvyqWGudD_iC0Sj4PmAqg- has been confirmed[6bc9bfdc] (7/7) Accurately ripped
Юбилейное издание, выпущенное к 30-тилетию оригинального альбома. Первый диск - ремастер оригиналльного альбома, второй - запись концерта 1981 года.
Belinda Carlisle: lead vocals
Charlotte Caffey: lead guitar, keyboards, background vocals
Gina Schock: drums, percussion, background vocals
Kathy Valentine: bass guitar, background vocals
Jane Wiedlin: rhythm guitar, vocals


Трекер:  [ 09-Дек-2012 14:59 ]

  

Скачать .torrent

Размер .torrent файла 12 KB


Размер: 594 MB
Хэш (hash) релиза: 506aa2d0e40ef3c357e17c0690252dc4d9f2a7f0

Еще никто не оставлял запись к записи скачать торрент The Go-Gos - Beauty and the Beat 30th Anniversary - 1981 . Будь первым!

!Обратная связь