Скачать через торрент музыку New Radicals - You Get What You Give бесплатно без регистрации torrent

Если у вас наблюдаются проблемы со скриншотами, переходом по ссылками, скачиванием торрентов - проблемы в блокировщике рекламы AdBlock. #хорошегоДня!


Статистика раздачи
Размер:  97 MB   |    Зарегистрирован:  4 года 8 месяцев   |    .torrent скачан:  14 раз   |   
Раздают:  1  
   
Загрузка...
 
Автор Сообщение

Galfimbul

avatar Galfimbul


New Radicals - You Get What You Give (CDS)

Жанр: Pop Rock
Страна-производитель диска: United Kingdom
Год издания: 1999
Издатель (лейбл): MCA Records
Номер по каталогу: MCSTD 48111
Страна: United Kingdom
Аудиокодек: FLAC (*.flac)
Тип рипа: tracks+.cue
Битрейт аудио: lossless
Продолжительность: 00:12:49
Источник (релизер): CD
Наличие сканов в содержимом раздачи: да
Треклист:
01. You Get What You Give
02. To Think I Thought
03. Maybe You've Been Brainwashed Too
Exact Audio Copy V1.0 beta 3 from 29. August 2011

Отчёт EAC об извлечении, выполненном 10. ноября 2012, 23:15

New Radicals / You Get What You Give

Дисковод: Optiarc DVD RW AD-5240S Adapter: 3 ID: 1

Режим чтения : ДостоверностьИспользование точного потока : ДаОтключение кэша аудио : ДаИспользование указателей C2 : Нет

Коррекция смещения при чтении : 48Способность читать области Lead-in и Lead-out : НетЗаполнение пропущенных сэмплов тишиной : ДаУдаление блоков с тишиной в начале и конце : НетПри вычислениях CRC использовались нулевые сэмплы : ДаИнтерфейс : Встроенный Win32-интерфейс для Win NT/2000Обработка зазоров : Добавлено к предыдущему треку

Выходной формат : Пользовательский кодировщикВыбранный битрейт : 768 kBit/sКачество : ВысокийДобавление ID3-тега : НетУтилита сжатия : C:\Program Files\Exact Audio Copy\FLAC\FLAC.EXEДополнительные параметры : -6 -V -T "ARTIST=%artist%" -T "TITLE=%title%" -T "ALBUM=%albumtitle%" -T "DATE=%year%" -T "TRACKNUMBER=%tracknr%" -T "GENRE=%genre%" -T "COMMENT=%comment%" -T "BAND=%albuminterpret%" -T "ALBUMARTIST=%albuminterpret%" -T "COMPOSER=%composer%" %haslyrics%--tag-from-file=LYRICS="%lyricsfile%"%haslyrics% -T "DISCNUMBER=%cdnumber%" -T "TOTALDISCS=%totalcds%" -T "TOTALTRACKS=%numtracks%" %hascover%--picture="%coverfile%"%hascover% %source% -o %dest%

TOC извлечённого CD

Трек | Старт | Длительность | Начальный сектор | Конечный сектор --------------------------------------------------------------------- 1 | 0:00.00 | 4:43.62 | 0 | 21286 2 | 4:43.62 | 2:45.43 | 21287 | 33704 3 | 7:29.30 | 5:19.15 | 33705 | 57644

Трек 1

Имя файла L:\Новая папка\01. New Radicals - You Get What You Give.wav

Длина предзазора 0:00:02.00

Пиковый уровень 98.3 % Скорость извлечения 2.2 X Качество трека 99.9 % CRC копии C60B5139 Точное извлечение (достоверность 21) [6AC75D3E] (AR v1) Копирование... OK

Трек 2

Имя файла L:\Новая папка\02. New Radicals - To Think I Thought.wav

Длина предзазора 0:00:01.57

Пиковый уровень 97.7 % Скорость извлечения 2.4 X Качество трека 100.0 % CRC копии 480B94A7 Точное извлечение (достоверность 21) [B89DBDAC] (AR v1) Копирование... OK

Трек 3

Имя файла L:\Новая папка\03. New Radicals - Maybe You've Been Brainwashed Too.wav

Длина предзазора 0:00:01.13

Пиковый уровень 93.5 % Скорость извлечения 2.9 X Качество трека 100.0 % CRC копии 11DE36A8 Точное извлечение (достоверность 21) [4CC2BD19] (AR v1) Копирование... OK

Все треки извлечены точно

Ошибок не произошло

Конец отчёта

==== Контрольная сумма отчёта 8D3B3B6364C5DDBD9C7B100AB662E7A6A86D3D48009629BD0FFF17C978BF00ED ====

------------------------------------------------------------

Exact Audio Copy V1.0 beta 3 from 29. August 2011

Отчёт EAC об извлечении, выполненном 10. ноября 2012, 23:15

New Radicals / You Get What You Give

Дисковод: Optiarc DVD RW AD-5240S Adapter: 3 ID: 1

Режим чтения : ДостоверностьИспользование точного потока : ДаОтключение кэша аудио : ДаИспользование указателей C2 : Нет

Коррекция смещения при чтении : 48Способность читать области Lead-in и Lead-out : НетЗаполнение пропущенных сэмплов тишиной : ДаУдаление блоков с тишиной в начале и конце : НетПри вычислениях CRC использовались нулевые сэмплы : ДаИнтерфейс : Встроенный Win32-интерфейс для Win NT/2000Обработка зазоров : Добавлено к предыдущему треку

Выходной формат : Пользовательский кодировщикВыбранный битрейт : 768 kBit/sКачество : ВысокийДобавление ID3-тега : НетУтилита сжатия : C:\Program Files\Exact Audio Copy\FLAC\FLAC.EXEДополнительные параметры : -6 -V -T "ARTIST=%artist%" -T "TITLE=%title%" -T "ALBUM=%albumtitle%" -T "DATE=%year%" -T "TRACKNUMBER=%tracknr%" -T "GENRE=%genre%" -T "COMMENT=%comment%" -T "BAND=%albuminterpret%" -T "ALBUMARTIST=%albuminterpret%" -T "COMPOSER=%composer%" %haslyrics%--tag-from-file=LYRICS="%lyricsfile%"%haslyrics% -T "DISCNUMBER=%cdnumber%" -T "TOTALDISCS=%totalcds%" -T "TOTALTRACKS=%numtracks%" %hascover%--picture="%coverfile%"%hascover% %source% -o %dest%

TOC извлечённого CD

Трек | Старт | Длительность | Начальный сектор | Конечный сектор --------------------------------------------------------------------- 1 | 0:00.00 | 4:43.62 | 0 | 21286 2 | 4:43.62 | 2:45.43 | 21287 | 33704 3 | 7:29.30 | 5:19.15 | 33705 | 57644

Трек 1

Имя файла L:\Новая папка\01. New Radicals - You Get What You Give.wav

Длина предзазора 0:00:02.00

Пиковый уровень 98.3 % Скорость извлечения 2.2 X Качество трека 99.9 % CRC копии C60B5139 Точное извлечение (достоверность 21) [6AC75D3E] (AR v1) Копирование... OK

Трек 2

Имя файла L:\Новая папка\02. New Radicals - To Think I Thought.wav

Длина предзазора 0:00:01.57

Пиковый уровень 97.7 % Скорость извлечения 2.4 X Качество трека 100.0 % CRC копии 480B94A7 Точное извлечение (достоверность 21) [B89DBDAC] (AR v1) Копирование... OK

Трек 3

Имя файла L:\Новая папка\03. New Radicals - Maybe You've Been Brainwashed Too.wav

Длина предзазора 0:00:01.13

Пиковый уровень 93.5 % Скорость извлечения 2.9 X Качество трека 100.0 % CRC копии 11DE36A8 Точное извлечение (достоверность 21) [4CC2BD19] (AR v1) Копирование... OK

Все треки извлечены точно

Ошибок не произошло

Конец отчёта

==== Контрольная сумма отчёта 8D3B3B6364C5DDBD9C7B100AB662E7A6A86D3D48009629BD0FFF17C978BF00ED ====
REM GENRE RockREM DATE 1999REM DISCID 1B030003REM COMMENT "ExactAudioCopy v1.0b3"CATALOG 0000000000000PERFORMER "New Radicals"TITLE "You Get What You Give"FILE "01. New Radicals - You Get What You Give.wav" WAVE TRACK 01 AUDIO TITLE "You Get What You Give" PERFORMER "New Radicals" INDEX 01 00:00:00 TRACK 02 AUDIO TITLE "To Think I Thought" PERFORMER "New Radicals" INDEX 00 04:42:05FILE "02. New Radicals - To Think I Thought.wav" WAVE INDEX 01 00:00:00 TRACK 03 AUDIO TITLE "Maybe You've Been Brainwashed Too" PERFORMER "New Radicals" ISRC USMC19858273 INDEX 00 02:44:30FILE "03. New Radicals - Maybe You've Been Brainwashed Too.wav" WAVE INDEX 01 00:00:00


Трекер:  [ 09-Дек-2012 14:59 ]

  

Скачать .torrent

Размер .torrent файла 17 KB


Размер: 97 MB
Хэш (hash) релиза: 5c480c71c9f43ff246a5d906edabecf5c63d216a

Торренты, похожие на New Radicals - You Get What You Give скачать торрент

Форум Название Автор Размер S L Добавлен
Зарубежный Rock ·· (Pop Rock) New Radicals - You Get What You Give (CDS) - 1999, MP3, 320 kbps Galfimbul 3505409833 MB 0 0 1353999720

10:02

27-Ноя-12

Еще никто не оставлял запись к записи скачать торрент New Radicals - You Get What You Give . Будь первым!

!Обратная связь