Скачать через торрент музыку Kingdom Come - Twilight Cruiser - 1995, FLAC бесплатно без регистрации torrent

Если у вас наблюдаются проблемы со скриншотами, переходом по ссылками, скачиванием торрентов - проблемы в блокировщике рекламы AdBlock. #хорошегоДня!


Статистика раздачи
Размер:  382 MB   |    Зарегистрирован:  4 года 8 месяцев   |    .torrent скачан:  10 раз   |   
Раздают:  1  
   
Загрузка...
 
Автор Сообщение

Galfimbul

avatar Galfimbul


Kingdom Come / Twilight Cruiser

Жанр: Hard Rock
Страна-производитель диска: Germany
Год издания: 1995
Издатель (лейбл): Viceroy Music
Номер по каталогу: Viceroy 33 008-423
Страна: Germany
Аудиокодек: FLAC (*.flac)
Тип рипа: image+.cue
Битрейт аудио: lossless
Продолжительность: 00:51:21
Источник (релизер): Собственная коллекция
Наличие сканов в содержимом раздачи: да
Треклист:
01. Always On The Run [04:13.25]
02. Law Of Emotions [04:02.32]
03. Twilight Cruiser [06:38.45]
04. Janine [04:23.20]
05. Hope Is On Fire [03:15.03]
06. Thank You All [03:55.07]
07. Rather Be On My Own [03:00.68]
08. Can't Put Out And Not Take Back [04:19.72]
09. Cold Ground [04:17.10]
10. I Don't Care [04:57.10]
11. Gonna Change [03:46.28]
12. Should Have Known [04:32.22]
Exact Audio Copy V1.0 beta 3 from 29. August 2011

Отчёт EAC об извлечении, выполненном 25. ноября 2012, 22:50

Kingdom Come / Twilight Cruiser

Дисковод: ATAPI iHAS124 B Adapter: 2 ID: 1

Режим чтения : ДостоверностьИспользование точного потока : ДаОтключение кэша аудио : ДаИспользование указателей C2 : Нет

Коррекция смещения при чтении : 6Способность читать области Lead-in и Lead-out : НетЗаполнение пропущенных сэмплов тишиной : ДаУдаление блоков с тишиной в начале и конце : НетПри вычислениях CRC использовались нулевые сэмплы : ДаИнтерфейс : Встроенный Win32-интерфейс для Win NT/2000

Выходной формат : Внутренние WAV-операцииФормат сэмплов : 44.100 Гц; 16 бит; стерео

TOC извлечённого CD

Трек | Старт | Длительность | Начальный сектор | Конечный сектор --------------------------------------------------------------------- 1 | 0:00.00 | 4:13.25 | 0 | 18999 2 | 4:13.25 | 4:02.32 | 19000 | 37181 3 | 8:15.57 | 6:38.45 | 37182 | 67076 4 | 14:54.27 | 4:23.20 | 67077 | 86821 5 | 19:17.47 | 3:15.03 | 86822 | 101449 6 | 22:32.50 | 3:55.07 | 101450 | 119081 7 | 26:27.57 | 3:00.68 | 119082 | 132649 8 | 29:28.50 | 4:19.72 | 132650 | 152146 9 | 33:48.47 | 4:17.10 | 152147 | 171431 10 | 38:05.57 | 4:57.10 | 171432 | 193716 11 | 43:02.67 | 3:46.28 | 193717 | 210694 12 | 46:49.20 | 4:32.22 | 210695 | 231116

Характеристики диапазона извлечения и сообщения об ошибках

Выбранный диапазон

Имя файла C:\Users\Андрей\Desktop\Новая папка\Kingdom Come - Twilight Cruiser.wav

Пиковый уровень 100.0 % Скорость извлечения 5.7 X Качество диапазона 100.0 % CRC теста C8651FA6 CRC копии C8651FA6 Копирование... OK

Ошибок не произошло

AccurateRip: сводка

Трек 1 : извлечено точно (доверие 4) [BCC39C76] (AR v1)Трек 2 : извлечено точно (доверие 4) [C75524B7] (AR v1)Трек 3 : извлечено точно (доверие 4) [4F0EB60A] (AR v1)Трек 4 : извлечено точно (доверие 4) [981A3BE6] (AR v1)Трек 5 : извлечено точно (доверие 4) [FE81767B] (AR v1)Трек 6 : извлечено точно (доверие 4) [5D46B46F] (AR v1)Трек 7 : извлечено точно (доверие 4) [499CBC2E] (AR v1)Трек 8 : извлечено точно (доверие 4) [1702A3A6] (AR v1)Трек 9 : извлечено точно (доверие 4) [65DA1895] (AR v1)Трек 10 : извлечено точно (доверие 4) [08567BE9] (AR v1)Трек 11 : извлечено точно (доверие 4) [5D4B5EAC] (AR v1)Трек 12 : извлечено точно (доверие 4) [E733E993] (AR v1)

Все треки извлечены точно

Конец отчёта

==== Контрольная сумма отчёта 76356E65EDFC6D02B191687451FC2BF7372A188FE69B3CF38A678A760A42F116 ====
Lenny Wolf-Vocal, Rhythm Guitar
Markus Demel-Leader Guitar, Rhythm Guitar
Oliver Kiessner-Rhythm Guitar
Mike Schaffer-Bass Guitar
Kai Fricke-Drums, Feedbacks
Bernd Fintzen-Keyboard


Трекер:  [ 26-Ноя-2012 18:34 ]

  

Скачать .torrent

Размер .torrent файла 16 KB


Размер: 382 MB
Хэш (hash) релиза: 380c65a2184426784a7702879909305336d30eb8

Еще никто не оставлял запись к записи скачать торрент Kingdom Come - Twilight Cruiser - 1995, FLAC . Будь первым!

!Обратная связь