Скачать через торрент музыку Deep Purple - Machine Head 40th Deluxe, Burn 30th, Stormbringer 35th, Come Taste The Band 35th бесплатно без регистрации torrent

Если у вас наблюдаются проблемы со скриншотами, переходом по ссылками, скачиванием торрентов - проблемы в блокировщике рекламы AdBlock. #хорошегоДня!


Статистика раздачи
Размер:  4.12 GB   |    Зарегистрирован:  4 года 10 месяцев   |    .torrent скачан:  54 раза   |   
Раздают:  1  
   
Загрузка...
 
Автор Сообщение

Galfimbul

avatar Galfimbul


Deep Purple:
Machine Head 40th Anniversary Deluxe Edition (4CD+DVD)
Burn - 30th Anniversary Edition
Stormbringer - 35th Anniversary Edition CD+DVD
Come Taste The Band - 35th Anniversary (2CD)

4 Studio Albums, 8CD
Жанр: Hard Rock
Страна-производитель диска: UK, Holland, EU
Оригинальные года издания: 1972-1975
Год издания: 2004-2012
Издатель (лейбл): EMI
Страна: England
Аудиокодек: FLAC (*.flac)
Тип рипа: image+.cue
Битрейт аудио: lossless
Продолжительность: 07:06:15
Источник (релизер): Собственный
Наличие сканов в содержимом раздачи: да (PNG, 1.29Gb, 300-600dpi)
Wikipedia | Facebook | Official page
О данном материале: В этой раздаче собраны четыре юбилейных издания (на 30, 35 и 40 лет) студийных альбомов группы Deep Purple. В том числе новое издание 2012 года Machine Head 40th Anniversary Deluxe Edition 4CD+DVD (Remastered, 2012, EMI TPSAD7504). Все альбомы ремастированны.

Studio Albums
Треклист:
01. Highway Star (2012 - Remaster) - 6:09
02. Maybe I'm A Leo (2012 - Remaster) - 4:52
03. Pictures Of Home (2012 - Remaster) - 5:06
04. Never Before (2012 - Remaster) - 4:02
05. Smoke On The Water (2012 - Remaster) - 5:42
06. Lazy (2012 - Remaster) - 7:23
07. Space Truckin' (2012 - Remaster) - 4:37Bonus Tracks:
08. When A Blind Man Cries (2012 - Remaster) - 3:31
Exact Audio Copy V1.0 beta 3 from 29. August 2011

EAC extraction logfile from 13. November 2012, 23:11

Deep Purple / Machine Head CD1 - Original Album 2012 Remaster

Used drive : Optiarc DVD RW AD-5200S Adapter: 2 ID: 0

Read mode : SecureUtilize accurate stream : YesDefeat audio cache : YesMake use of C2 pointers : No

Read offset correction : 48Overread into Lead-In and Lead-Out : NoFill up missing offset samples with silence : YesDelete leading and trailing silent blocks : NoNull samples used in CRC calculations : YesUsed interface : Native Win32 interface for Win NT & 2000

Used output format : User Defined EncoderSelected bitrate : 1024 kBit/sQuality : HighAdd ID3 tag : NoCommand line compressor : C:\Program Files (x86)\Exact Audio Copy\FLAC\FLAC.EXEAdditional command line options : -8 -V -T "ARTIST=%artist%" -T "TITLE=%title%" -T "ALBUM=%albumtitle%" -T "DATE=%year%" -T "TRACKNUMBER=%tracknr%" -T "GENRE=%genre%" -T "PERFORMER=%albuminterpret%" -T "COMPOSER=%composer%" %haslyrics%--tag-from-file=LYRICS="%lyricsfile%"%haslyrics% -T "ALBUMARTIST=%albumartist%" -T "DISCNUMBER=%cdnumber%" -T "TOTALDISCS=%totalcds%" -T "TOTALTRACKS=%numtracks%" -T "COMMENT=%comment%" %source% -o %dest%

TOC of the extracted CD

Track | Start | Length | Start sector | End sector --------------------------------------------------------- 1 | 0:00.00 | 6:08.56 | 0 | 27655 2 | 6:08.56 | 4:52.26 | 27656 | 49581 3 | 11:01.07 | 5:06.02 | 49582 | 72533 4 | 16:07.09 | 4:02.01 | 72534 | 90684 5 | 20:09.10 | 5:41.64 | 90685 | 116323 6 | 25:50.74 | 7:22.48 | 116324 | 149521 7 | 33:13.47 | 4:36.45 | 149522 | 170266 8 | 37:50.17 | 3:31.30 | 170267 | 186121

Range status and errors

Selected range

Filename G:\CD\CD1-Original Album 2012 Remaster.wav

Peak level 99.9 % Extraction speed 3.6 X Range quality 99.9 % Test CRC 3A4EB363 Copy CRC 3A4EB363 Copy OK

No errors occurred

AccurateRip summary

Track 1 not present in databaseTrack 2 not present in databaseTrack 3 not present in databaseTrack 4 not present in databaseTrack 5 not present in databaseTrack 6 not present in databaseTrack 7 not present in databaseTrack 8 not present in database

None of the tracks are present in the AccurateRip database

End of status report

==== Log checksum 4D96B8615D02BEB74E8E0436B23E086807A497E8A4BFDF4302D5C93CF197F394 ====
Треклист:
01. Highway Star - 6:31
02. Maybe I'm A Leo - 5:30
03. Pictures Of Home - 5:24
04. Never Before - 4:01
05. Smoke On The Water - 6:16
06. Lazy - 7:33
07. Space Truckin' - 4:54Bonus Tracks:
08. When A Blind Man Cries (Non-Album B-Side) - 3:30
Exact Audio Copy V1.0 beta 3 from 29. August 2011

EAC extraction logfile from 13. November 2012, 23:44

Deep Purple / Machine Head CD2 - Roger Glover's 1997 Mixes

Used drive : Optiarc DVD RW AD-5200S Adapter: 2 ID: 0

Read mode : SecureUtilize accurate stream : YesDefeat audio cache : YesMake use of C2 pointers : No

Read offset correction : 48Overread into Lead-In and Lead-Out : NoFill up missing offset samples with silence : YesDelete leading and trailing silent blocks : NoNull samples used in CRC calculations : YesUsed interface : Native Win32 interface for Win NT & 2000

Used output format : User Defined EncoderSelected bitrate : 1024 kBit/sQuality : HighAdd ID3 tag : NoCommand line compressor : C:\Program Files (x86)\Exact Audio Copy\FLAC\FLAC.EXEAdditional command line options : -8 -V -T "ARTIST=%artist%" -T "TITLE=%title%" -T "ALBUM=%albumtitle%" -T "DATE=%year%" -T "TRACKNUMBER=%tracknr%" -T "GENRE=%genre%" -T "PERFORMER=%albuminterpret%" -T "COMPOSER=%composer%" %haslyrics%--tag-from-file=LYRICS="%lyricsfile%"%haslyrics% -T "ALBUMARTIST=%albumartist%" -T "DISCNUMBER=%cdnumber%" -T "TOTALDISCS=%totalcds%" -T "TOTALTRACKS=%numtracks%" -T "COMMENT=%comment%" %source% -o %dest%

TOC of the extracted CD

Track | Start | Length | Start sector | End sector --------------------------------------------------------- 1 | 0:00.00 | 6:31.32 | 0 | 29356 2 | 6:31.32 | 5:30.22 | 29357 | 54128 3 | 12:01.54 | 5:23.66 | 54129 | 78419 4 | 17:25.45 | 4:00.70 | 78420 | 96489 5 | 21:26.40 | 6:15.63 | 96490 | 124677 6 | 27:42.28 | 7:33.12 | 124678 | 158664 7 | 35:15.40 | 4:54.27 | 158665 | 180741 8 | 40:09.67 | 3:30.31 | 180742 | 196522

Range status and errors

Selected range

Filename G:\CD\CD2-Roger Glover's 1997 Mixes.wav

Peak level 84.0 % Extraction speed 3.8 X Range quality 100.0 % Test CRC DB561382 Copy CRC DB561382 Copy OK

No errors occurred

AccurateRip summary

Track 1 not present in databaseTrack 2 not present in databaseTrack 3 not present in databaseTrack 4 not present in databaseTrack 5 not present in databaseTrack 6 not present in databaseTrack 7 not present in databaseTrack 8 not present in database

None of the tracks are present in the AccurateRip database

End of status report

==== Log checksum 2E0F60432986C64A7CE35D78658DFDEBCB028DE21E8EEA814BE45DB339333C73 ====
Треклист:
01. Highway Star - 6:13
02. Maybe I'm A Leo - 4:57
03. Pictures Of Home - 5:06
04. Never Before - 4:01
05. Smoke On The Water - 5:41
06. Lazy - 6:54
07. Space Truckin' - 4:36Single edition:
08. Smoke On The Water (US A-Side) - 3:52
09. Lazy (Japanese B-Side) - 2:32
Exact Audio Copy V1.0 beta 3 from 29. August 2011

EAC extraction logfile from 13. November 2012, 9:05

Deep Purple / Machine Head CD3 - Original Album Quad SQ Stereo (2012 Remaster)

Used drive : Optiarc DVD RW AD-5200S Adapter: 2 ID: 0

Read mode : SecureUtilize accurate stream : YesDefeat audio cache : YesMake use of C2 pointers : No

Read offset correction : 48Overread into Lead-In and Lead-Out : NoFill up missing offset samples with silence : YesDelete leading and trailing silent blocks : NoNull samples used in CRC calculations : YesUsed interface : Native Win32 interface for Win NT & 2000

Used output format : User Defined EncoderSelected bitrate : 1024 kBit/sQuality : HighAdd ID3 tag : NoCommand line compressor : C:\Program Files (x86)\Exact Audio Copy\FLAC\FLAC.EXEAdditional command line options : -8 -V -T "ARTIST=%artist%" -T "TITLE=%title%" -T "ALBUM=%albumtitle%" -T "DATE=%year%" -T "TRACKNUMBER=%tracknr%" -T "GENRE=%genre%" -T "PERFORMER=%albuminterpret%" -T "COMPOSER=%composer%" %haslyrics%--tag-from-file=LYRICS="%lyricsfile%"%haslyrics% -T "ALBUMARTIST=%albumartist%" -T "DISCNUMBER=%cdnumber%" -T "TOTALDISCS=%totalcds%" -T "TOTALTRACKS=%numtracks%" -T "COMMENT=%comment%" %source% -o %dest%

TOC of the extracted CD

Track | Start | Length | Start sector | End sector --------------------------------------------------------- 1 | 0:00.00 | 6:12.59 | 0 | 27958 2 | 6:12.59 | 4:57.11 | 27959 | 50244 3 | 11:09.70 | 5:05.69 | 50245 | 73188 4 | 16:15.64 | 4:01.32 | 73189 | 91295 5 | 20:17.21 | 5:41.19 | 91296 | 116889 6 | 25:58.40 | 6:54.24 | 116890 | 147963 7 | 32:52.64 | 4:36.19 | 147964 | 168682 8 | 37:29.08 | 3:51.58 | 168683 | 186065 9 | 41:20.66 | 2:31.38 | 186066 | 197428

Range status and errors

Selected range

Filename G:\CD\CD3-Original Album Quad SQ Stereo (2012 Remaster).wav

Peak level 90.8 % Extraction speed 3.8 X Range quality 100.0 % Test CRC 15748BE3 Copy CRC 15748BE3 Copy OK

No errors occurred

AccurateRip summary

Track 1 not present in databaseTrack 2 not present in databaseTrack 3 not present in databaseTrack 4 not present in databaseTrack 5 not present in databaseTrack 6 not present in databaseTrack 7 not present in databaseTrack 8 not present in databaseTrack 9 not present in database

None of the tracks are present in the AccurateRip database

End of status report

==== Log checksum 61F8BBF9789DD5C6A2FC493BA84E5E2C5C384C6AC32AE6378EFAC661948BA5F6 ====
Треклист:
01. Introduction - 0:16
02. Highway Star - 7:41
03. Strange Kind Of Woman - 9:33
04. Maybe I'm A Leo - 5:36
05. Smoke On The Water - 7:32
06. Never Before - 5:18
07. Lazy - 9:22
08. Space Truckin' - 22:11
09. Lucille - 7:31
Exact Audio Copy V1.0 beta 3 from 29. August 2011

EAC extraction logfile from 13. November 2012, 9:44

Deep Purple / Machine Head CD4 - In Concert '72 (2012 Remix)

Used drive : Optiarc DVD RW AD-5200S Adapter: 2 ID: 0

Read mode : SecureUtilize accurate stream : YesDefeat audio cache : YesMake use of C2 pointers : No

Read offset correction : 48Overread into Lead-In and Lead-Out : NoFill up missing offset samples with silence : YesDelete leading and trailing silent blocks : NoNull samples used in CRC calculations : YesUsed interface : Native Win32 interface for Win NT & 2000

Used output format : User Defined EncoderSelected bitrate : 1024 kBit/sQuality : HighAdd ID3 tag : NoCommand line compressor : C:\Program Files (x86)\Exact Audio Copy\FLAC\FLAC.EXEAdditional command line options : -8 -V -T "ARTIST=%artist%" -T "TITLE=%title%" -T "ALBUM=%albumtitle%" -T "DATE=%year%" -T "TRACKNUMBER=%tracknr%" -T "GENRE=%genre%" -T "PERFORMER=%albuminterpret%" -T "COMPOSER=%composer%" %haslyrics%--tag-from-file=LYRICS="%lyricsfile%"%haslyrics% -T "ALBUMARTIST=%albumartist%" -T "DISCNUMBER=%cdnumber%" -T "TOTALDISCS=%totalcds%" -T "TOTALTRACKS=%numtracks%" -T "COMMENT=%comment%" %source% -o %dest%

TOC of the extracted CD

Track | Start | Length | Start sector | End sector --------------------------------------------------------- 1 | 0:00.00 | 0:16.14 | 0 | 1213 2 | 0:16.14 | 7:41.34 | 1214 | 35822 3 | 7:57.48 | 9:32.58 | 35823 | 78780 4 | 17:30.31 | 5:35.70 | 78781 | 103975 5 | 23:06.26 | 7:31.66 | 103976 | 137866 6 | 30:38.17 | 5:18.15 | 137867 | 161731 7 | 35:56.32 | 9:22.20 | 161732 | 203901 8 | 45:18.52 | 22:11.19 | 203902 | 303745 9 | 67:29.71 | 7:30.47 | 303746 | 337542

Range status and errors

Selected range

Filename G:\CD\CD4 - In Concert '72 (2012 Remix).wav

Peak level 98.5 % Extraction speed 4.4 X Range quality 99.9 % Test CRC ED6F3F04 Copy CRC ED6F3F04 Copy OK

No errors occurred

AccurateRip summary

Track 1 not present in databaseTrack 2 not present in databaseTrack 3 not present in databaseTrack 4 not present in databaseTrack 5 not present in databaseTrack 6 not present in databaseTrack 7 not present in databaseTrack 8 not present in databaseTrack 9 not present in database

None of the tracks are present in the AccurateRip database

End of status report

==== Log checksum BED7BD65B4A8925868A791716039C45199E2F42092EB1CC9220FC60760A01D63 ====
Шестой студийный альбом группы Deep Purple. Он был записан в декабре 1971 года в Монтрё, Швейцария и выпущен в марте 1972 года. Этот альбом наиболее успешный в карьере группы, возглавил чарты в нескольких странах после его выпуска. Альбом достиг № 1 в Великобритании и оставался в топ-40 в течение 20 недель. Он же достиг № 7 в США, оставаясь на Billboard 200 в течении 118 недель.
К 40-летию первого издания Machine Head был выпущен боксет на 4 CD и аудио DVD. В состав дисков вошли:
- два ремастированных микса оригинального альбома (CD1 оригинальный микс с треком не вошедшим в альбом "When a Blind Man Cries" со второй стороны сингла и CD3 четырёхканальный SQ сведённый в стерео);
- CD2 ремикс 1997 года выполненный Roger Glover;
- CD4 ремастированный концертный альбом который состоялся 9 марта 1972 года в Paris Theatre в Лондоне.
- также в комплект издания включён DVD аудио:
1. Ремастированный оригинальный альбом в качестве 96/24 LPCM stereo
2. Ремастированный оригинальный альбом в варианте 4.1
a. DTS 96/24
b. Dolby Digital
3. Три 'When A Blind Man Cries', 'Maybe I'm A Leo' и 'Lazy' трека в варианте 5.1
a. DTS 96/24
b. Dolby Digital.
Так же, к 40-летию выпуска Machine Head был выпущен трибьют Re-Machined A Tribute To Deep Purple's Machine Head, приложение к журналу Classic Rock.
- Ritchie Blackmore – guitar
- Ian Gillan – vocals, harmonica
- Roger Glover – bass
- Ian Paice – drums, percussion
- Jon Lord – keyboards
Треклист:
01. Burn - 6:05
02. Might Just Take Your Life - 4:40
03. Lay Down, Stay Down - 4:20
04. Sail Away - 5:52
05. You Fool No One - 4:48
06. What's Going On Here - 4:58
07. Mistreated - 7:28
08. 'A' 200 - 4:17Bonus Tracks:
09. Coronarias Redig (B-Side 2004 Remix) - 5:32
10. Burn (2004 Remix) - 6:04
11. Mistreated (2004 Remix) - 7:30
12. You Fool No One (2004 Remix) - 4:59
13. Sail Away (2004 Remix) - 5:36
Exact Audio Copy V1.0 beta 3 from 29. August 2011

EAC extraction logfile from 17. November 2012, 16:52

Deep Purple / Burn 30th Anniversary Edition

Used drive : Optiarc DVD RW AD-5200S Adapter: 2 ID: 0

Read mode : SecureUtilize accurate stream : YesDefeat audio cache : YesMake use of C2 pointers : No

Read offset correction : 48Overread into Lead-In and Lead-Out : NoFill up missing offset samples with silence : YesDelete leading and trailing silent blocks : NoNull samples used in CRC calculations : YesUsed interface : Native Win32 interface for Win NT & 2000

Used output format : User Defined EncoderSelected bitrate : 1024 kBit/sQuality : HighAdd ID3 tag : NoCommand line compressor : C:\Program Files (x86)\Exact Audio Copy\FLAC\FLAC.EXEAdditional command line options : -8 -V -T "ARTIST=%artist%" -T "TITLE=%title%" -T "ALBUM=%albumtitle%" -T "DATE=%year%" -T "TRACKNUMBER=%tracknr%" -T "GENRE=%genre%" -T "PERFORMER=%albuminterpret%" -T "COMPOSER=%composer%" %haslyrics%--tag-from-file=LYRICS="%lyricsfile%"%haslyrics% -T "ALBUMARTIST=%albumartist%" -T "DISCNUMBER=%cdnumber%" -T "TOTALDISCS=%totalcds%" -T "TOTALTRACKS=%numtracks%" -T "COMMENT=%comment%" %source% -o %dest%

TOC of the extracted CD

Track | Start | Length | Start sector | End sector --------------------------------------------------------- 1 | 0:00.00 | 6:04.70 | 0 | 27369 2 | 6:04.70 | 4:40.35 | 27370 | 48404 3 | 10:45.30 | 4:20.35 | 48405 | 67939 4 | 15:05.65 | 5:52.22 | 67940 | 94361 5 | 20:58.12 | 4:47.68 | 94362 | 115954 6 | 25:46.05 | 4:58.00 | 115955 | 138304 7 | 30:44.05 | 7:28.25 | 138305 | 171929 8 | 38:12.30 | 4:16.40 | 171930 | 191169 9 | 42:28.70 | 5:32.12 | 191170 | 216081 10 | 48:01.07 | 6:03.68 | 216082 | 243374 11 | 54:05.00 | 7:29.50 | 243375 | 277099 12 | 61:34.50 | 4:58.72 | 277100 | 299521 13 | 66:33.47 | 5:36.15 | 299522 | 324736

Range status and errors

Selected range

Filename G:\CD\Deep Purple - Burn 30th Anniversary Edition.wav

Peak level 100.0 % Extraction speed 4.2 X Range quality 100.0 % Test CRC 5C9210D3 Copy CRC 5C9210D3 Copy OK

No errors occurred

AccurateRip summary

Track 1 accurately ripped (confidence 10) [85B1929D] (AR v2)Track 2 accurately ripped (confidence 10) [8D356FA0] (AR v2)Track 3 accurately ripped (confidence 10) [5C0DD465] (AR v2)Track 4 accurately ripped (confidence 10) [B714BA41] (AR v2)Track 5 accurately ripped (confidence 10) [6E21A63E] (AR v2)Track 6 accurately ripped (confidence 10) [A88E9E1E] (AR v2)Track 7 accurately ripped (confidence 10) [BE0AE95E] (AR v2)Track 8 accurately ripped (confidence 10) [A5D0112A] (AR v2)Track 9 accurately ripped (confidence 10) [690FF407] (AR v2)Track 10 accurately ripped (confidence 10) [D4B6BDD3] (AR v2)Track 11 accurately ripped (confidence 10) [B9089566] (AR v2)Track 12 accurately ripped (confidence 10) [BD9801B2] (AR v2)Track 13 accurately ripped (confidence 9) [35A2525A] (AR v2)

All tracks accurately ripped

End of status report

==== Log checksum 3770A05A0B011651D032E9AE25B95FD2DF5FAA97A80E7EE9059C7F41EACD45B1 ====
Burn — восьмой студийный альбом группы, был записан в ноябре 1973 года в Монтрё, Швейцария и выпущен 15 февраля 1974 года. На этом альбоме были записаны новые участники группы David Coverdale и Glenn Hughes. Под влиянием новичков — вокалиста Дэвида Ковердэйла и бас-гитариста/вокалиста Гленна Хьюза — звучание Deep Purple стало более блюзовым, стали проявляться элементы фанка и соула. Это был первый альбом группы в составе MARK III. Став хитом, песня «Burn» в течение следующих двух лет открывала все концерты Deep Purple. Однако после воссоединения группы в формате «Mark 2» с Иэном Гилланом в качестве вокалиста эта песня вообще выпала из репертуара, так как Гиллан отказался исполнять песни Ковердэйла. Тем не менее, пришедший на замену Блэкмору Стив Морс поначалу играл основной рифф из Burn в концертной версии Speed King. К тридцатилетию со дня выпуска, альбом был ремастирован и к нему были добавлены пять треков ремиксированых в 2004 году.
- Ritchie Blackmore – lead guitar
- David Coverdale – vocals
- Glenn Hughes – bass guitar, vocals
- Jon Lord – keyboards
- Ian Paice – drums
Треклист:
01. Stormbringer - 4:07
02. Love Don't Mean A Thing - 4:25
03. Holy Man - 4:34
04. Hold On - 5:07
05. Lady Double Dealer - 3:22
06. You Can't Do It Right - 3:26
07. High Ball Shooter - 4:28
08. The Gypsy - 4:05
09. Soldier Of Fortune - 3:25Bonus Tracks:
10. Holy Man (Glenn Hughes remix) - 4:33
11. You Can't Do It Right (Glenn Hughes remix) - 3:28
12. Love Don't Mean A Thing (Glenn Hughes remix) - 5:08
13. Hold On (Glenn Hughes remix) - 5:14
14. High Ball Shooter (instrumental) - 4:30
Exact Audio Copy V1.0 beta 3 from 29. August 2011

EAC extraction logfile from 17. November 2012, 17:26

Deep Purple / Stormbringer (35th anniversary)

Used drive : Optiarc DVD RW AD-5200S Adapter: 2 ID: 0

Read mode : SecureUtilize accurate stream : YesDefeat audio cache : YesMake use of C2 pointers : No

Read offset correction : 48Overread into Lead-In and Lead-Out : NoFill up missing offset samples with silence : YesDelete leading and trailing silent blocks : NoNull samples used in CRC calculations : YesUsed interface : Native Win32 interface for Win NT & 2000

Used output format : User Defined EncoderSelected bitrate : 1024 kBit/sQuality : HighAdd ID3 tag : NoCommand line compressor : C:\Program Files (x86)\Exact Audio Copy\FLAC\FLAC.EXEAdditional command line options : -8 -V -T "ARTIST=%artist%" -T "TITLE=%title%" -T "ALBUM=%albumtitle%" -T "DATE=%year%" -T "TRACKNUMBER=%tracknr%" -T "GENRE=%genre%" -T "PERFORMER=%albuminterpret%" -T "COMPOSER=%composer%" %haslyrics%--tag-from-file=LYRICS="%lyricsfile%"%haslyrics% -T "ALBUMARTIST=%albumartist%" -T "DISCNUMBER=%cdnumber%" -T "TOTALDISCS=%totalcds%" -T "TOTALTRACKS=%numtracks%" -T "COMMENT=%comment%" %source% -o %dest%

TOC of the extracted CD

Track | Start | Length | Start sector | End sector --------------------------------------------------------- 1 | 0:00.00 | 4:06.58 | 0 | 18507 2 | 4:06.58 | 4:24.55 | 18508 | 38362 3 | 8:31.38 | 4:33.68 | 38363 | 58905 4 | 13:05.31 | 5:06.51 | 58906 | 81906 5 | 18:12.07 | 3:21.50 | 81907 | 97031 6 | 21:33.57 | 3:25.73 | 97032 | 112479 7 | 24:59.55 | 4:28.15 | 112480 | 132594 8 | 29:27.70 | 4:05.30 | 132595 | 150999 9 | 33:33.25 | 3:24.66 | 151000 | 166365 10 | 36:58.16 | 4:33.01 | 166366 | 186841 11 | 41:31.17 | 3:28.01 | 186842 | 202442 12 | 44:59.18 | 5:08.34 | 202443 | 225576 13 | 50:07.52 | 5:13.43 | 225577 | 249094 14 | 55:21.20 | 4:30.20 | 249095 | 269364

Range status and errors

Selected range

Filename G:\CD\Deep Purple - Stormbringer (35th anniversary).wav

Peak level 100.0 % Extraction speed 3.9 X Range quality 100.0 % Test CRC 55F21BD0 Copy CRC 55F21BD0 Copy OK

No errors occurred

AccurateRip summary

Track 1 accurately ripped (confidence 7) [361C63A5] (AR v2)Track 2 accurately ripped (confidence 7) [16DB1BEC] (AR v2)Track 3 accurately ripped (confidence 7) [3FB965AB] (AR v2)Track 4 accurately ripped (confidence 7) [DA6416D8] (AR v2)Track 5 accurately ripped (confidence 7) [D1BFF218] (AR v2)Track 6 accurately ripped (confidence 7) [E4B35593] (AR v2)Track 7 accurately ripped (confidence 7) [2FFA32C4] (AR v2)Track 8 accurately ripped (confidence 7) [7442317B] (AR v2)Track 9 accurately ripped (confidence 7) [268D53A0] (AR v2)Track 10 accurately ripped (confidence 7) [D49262ED] (AR v2)Track 11 accurately ripped (confidence 7) [8076F24D] (AR v2)Track 12 accurately ripped (confidence 7) [4880E67A] (AR v2)Track 13 accurately ripped (confidence 7) [FBC21512] (AR v2)Track 14 accurately ripped (confidence 7) [35083F46] (AR v2)

All tracks accurately ripped

End of status report

==== Log checksum 8B615C46B97377CAE034E7946D3BDD9F6CE8AC12E42FD0DB2AE3D579007C49E0 ====
Stormbringer — девятый студийный альбом группы Deep Purple, вышедший в ноябре 1974 года. На этом диске сильны элементы фанка и соула, привносимые Хьюзом и Ковердэйлом, что не устраивало Блэкмора (фактически, альбом представляет собой смесь заимствований Ковердэйла из блюза, элементов фанка, которым увлекался Хьюз, типичных хард-роковых риффов Блэкмора и классических органных партий Лорда). Обстановка в группе в очередной раз накалялась. Название «Stormbringer» («несущий бурю», «буревестник») навеяно творчеством Майкла Муркока. По неподтверждённым данным, альбом был записан за один день.
К 35-ти летнему изданию выпуска альбома был произведён цифровой мастеринг и ремастеринг Питером Мью на Abbey Road Studios, London. Также в это издание вошли ремиксы сделанные Глен Хьюзом и Питером Мью на Abbey Road Studios, London 3 ноября 2006 года и одна инструментальная композиция "High Ball Shooter" сведённая Гари Мэсси на Abbey Road Studios, London в апреле 2002 года. К юбилейному изданию прилагается DVD на котором находится оригинальный квадрофонический микс 4.1 аудио в оригинальном виде, сделанном Гари Ладински, как он был выпущен в США в 1975 году. Реформатирование в 5.1 surround sound произведено так же Питером Мью на Abbey Road Studios, London в феврале 2008 года.
DVD здесь – [ADVD][OF] Deep Purple - Stormbringer 35th Anniversary Edition - 1974/2009 (Rock)
- David Coverdale - lead vocals
- Ritchie Blackmore - guitar
- Glenn Hughes - bass, vocals
- Jon Lord - organ, keyboards
- Ian Paice - drums
Треклист:

CD 1 - Original Album Remastered - 00:41:58:
01. Comin' Home - 3:56
02. Lady Luck - 2:47
03. Gettin' Tighter - 3:38
04. Dealer - 3:52
05. I Need Love - 4:28
06. Drifter - 4:04
07. Love Child - 3:09
08. This Time Around-Owed To 'G' - 6:13
09. You Keep On Moving - 5:25Bonus Tracks:
10. You Keep On Moving (single version) Bonus Track - 4:26

CD 2 – 2010 Kevin Shirley Remixes - 00:48:21 :
01. Comin' Home (2010 Kevin Shirley Remix) - 4:08
02. Lady Luck (2010 Kevin Shirley Remix) - 2:46
03. Gettin' Tighter (2010 Kevin Shirley Remix) - 4:23
04. Dealer (2010 Kevin Shirley Remix) - 3:55
05. I Need Love (2010 Kevin Shirley Remix) - 5:17
06. You Keep On Moving (2010 Kevin Shirley Remix) - 5:18
07. Love Child (2010 Kevin Shirley Remix) - 3:08
08. This Time Around (2010 Kevin Shirley Remix) - 3:22
09. Owed To 'G' (2010 Kevin Shirley Remix) - 2:57
10. Drifter (2010 Kevin Shirley Remix) - 4:03Bonus Tracks (Previously unreleased):
11. Same In L.A. (2010 Kevin Shirley Remix) - 3:16
12. Bolin/Paice Jam (2010 Kevin Shirley Remix) - 5:48
Exact Audio Copy V1.0 beta 3 from 29. August 2011

EAC extraction logfile from 17. November 2012, 17:57

Deep Purple / Come Taste The Band (35th Anniversary) CD1

Used drive : Optiarc DVD RW AD-5200S Adapter: 2 ID: 0

Read mode : SecureUtilize accurate stream : YesDefeat audio cache : YesMake use of C2 pointers : No

Read offset correction : 48Overread into Lead-In and Lead-Out : NoFill up missing offset samples with silence : YesDelete leading and trailing silent blocks : NoNull samples used in CRC calculations : YesUsed interface : Native Win32 interface for Win NT & 2000

Used output format : User Defined EncoderSelected bitrate : 1024 kBit/sQuality : HighAdd ID3 tag : NoCommand line compressor : C:\Program Files (x86)\Exact Audio Copy\FLAC\FLAC.EXEAdditional command line options : -8 -V -T "ARTIST=%artist%" -T "TITLE=%title%" -T "ALBUM=%albumtitle%" -T "DATE=%year%" -T "TRACKNUMBER=%tracknr%" -T "GENRE=%genre%" -T "PERFORMER=%albuminterpret%" -T "COMPOSER=%composer%" %haslyrics%--tag-from-file=LYRICS="%lyricsfile%"%haslyrics% -T "ALBUMARTIST=%albumartist%" -T "DISCNUMBER=%cdnumber%" -T "TOTALDISCS=%totalcds%" -T "TOTALTRACKS=%numtracks%" -T "COMMENT=%comment%" %source% -o %dest%

TOC of the extracted CD

Track | Start | Length | Start sector | End sector --------------------------------------------------------- 1 | 0:00.00 | 3:56.10 | 0 | 17709 2 | 3:56.10 | 2:47.27 | 17710 | 30261 3 | 6:43.37 | 3:38.13 | 30262 | 46624 4 | 10:21.50 | 3:51.69 | 46625 | 64018 5 | 14:13.44 | 4:28.19 | 64019 | 84137 6 | 18:41.63 | 4:03.64 | 84138 | 102426 7 | 22:45.52 | 3:08.59 | 102427 | 116585 8 | 25:54.36 | 6:12.57 | 116586 | 144542 9 | 32:07.18 | 5:24.55 | 144543 | 168897 10 | 37:31.73 | 4:26.14 | 168898 | 188861

Range status and errors

Selected range

Filename G:\CD\Deep Purple - Come Taste The Band (35th Anniversary) CD1.wav

Peak level 98.8 % Extraction speed 3.6 X Range quality 100.0 % Test CRC 26D65446 Copy CRC 26D65446 Copy OK

No errors occurred

AccurateRip summary

Track 1 accurately ripped (confidence 20) [D2724502] (AR v2)Track 2 accurately ripped (confidence 21) [6F3E7C1F] (AR v2)Track 3 accurately ripped (confidence 21) [9EA2D69E] (AR v2)Track 4 accurately ripped (confidence 21) [FE88B63E] (AR v2)Track 5 accurately ripped (confidence 21) [08534B42] (AR v2)Track 6 accurately ripped (confidence 21) [1150BA83] (AR v2)Track 7 accurately ripped (confidence 21) [76AEB429] (AR v2)Track 8 accurately ripped (confidence 21) [97E77700] (AR v2)Track 9 accurately ripped (confidence 21) [0024F575] (AR v2)Track 10 accurately ripped (confidence 19) [96FC0387] (AR v2)

All tracks accurately ripped

End of status report

==== Log checksum A49A15CC858482DE1D670A6AFE618C600033D08BFD8B6BE3957D8F46BDCC9B4B ====
Exact Audio Copy V1.0 beta 3 from 29. August 2011

EAC extraction logfile from 17. November 2012, 19:26

Deep Purple / Come Taste The Band (35th Anniversary Edition) CD2

Used drive : Optiarc DVD RW AD-5200S Adapter: 2 ID: 0

Read mode : SecureUtilize accurate stream : YesDefeat audio cache : YesMake use of C2 pointers : No

Read offset correction : 48Overread into Lead-In and Lead-Out : NoFill up missing offset samples with silence : YesDelete leading and trailing silent blocks : NoNull samples used in CRC calculations : YesUsed interface : Native Win32 interface for Win NT & 2000

Used output format : User Defined EncoderSelected bitrate : 1024 kBit/sQuality : HighAdd ID3 tag : NoCommand line compressor : C:\Program Files (x86)\Exact Audio Copy\FLAC\FLAC.EXEAdditional command line options : -8 -V -T "ARTIST=%artist%" -T "TITLE=%title%" -T "ALBUM=%albumtitle%" -T "DATE=%year%" -T "TRACKNUMBER=%tracknr%" -T "GENRE=%genre%" -T "PERFORMER=%albuminterpret%" -T "COMPOSER=%composer%" %haslyrics%--tag-from-file=LYRICS="%lyricsfile%"%haslyrics% -T "ALBUMARTIST=%albumartist%" -T "DISCNUMBER=%cdnumber%" -T "TOTALDISCS=%totalcds%" -T "TOTALTRACKS=%numtracks%" -T "COMMENT=%comment%" %source% -o %dest%

TOC of the extracted CD

Track | Start | Length | Start sector | End sector --------------------------------------------------------- 1 | 0:00.00 | 4:08.34 | 0 | 18633 2 | 4:08.34 | 2:46.37 | 18634 | 31120 3 | 6:54.71 | 4:23.27 | 31121 | 50872 4 | 11:18.23 | 3:54.66 | 50873 | 68488 5 | 15:13.14 | 5:16.58 | 68489 | 92246 6 | 20:29.72 | 5:18.17 | 92247 | 116113 7 | 25:48.14 | 3:07.39 | 116114 | 130177 8 | 28:55.53 | 3:21.47 | 130178 | 145299 9 | 32:17.25 | 2:56.51 | 145300 | 158550 10 | 35:14.01 | 4:03.09 | 158551 | 176784 11 | 39:17.10 | 3:15.60 | 176785 | 191469 12 | 42:32.70 | 5:47.57 | 191470 | 217551

Range status and errors

Selected range

Filename G:\CD\Deep Purple - Come Taste The Band (35th Anniversary Edition) CD2.wav

Peak level 100.0 % Extraction speed 3.7 X Range quality 99.9 % Test CRC 602D3D25 Copy CRC 602D3D25 Copy OK

No errors occurred

AccurateRip summary

Track 1 accurately ripped (confidence 16) [22327D56] (AR v2)Track 2 accurately ripped (confidence 16) [757EC843] (AR v2)Track 3 accurately ripped (confidence 16) [7BA40398] (AR v2)Track 4 accurately ripped (confidence 16) [6CEB788A] (AR v2)Track 5 accurately ripped (confidence 16) [F457ECC2] (AR v2)Track 6 accurately ripped (confidence 16) [5C026341] (AR v2)Track 7 accurately ripped (confidence 16) [5899A2D7] (AR v2)Track 8 accurately ripped (confidence 16) [8351AC04] (AR v2)Track 9 accurately ripped (confidence 16) [216E115F] (AR v2)Track 10 accurately ripped (confidence 16) [C74DB79C] (AR v2)Track 11 accurately ripped (confidence 16) [18BA89DF] (AR v2)Track 12 accurately ripped (confidence 16) [01BB100E] (AR v2)

All tracks accurately ripped

End of status report

==== Log checksum 9960969002E3A71F71DA628399616C4792D833833494A32F45944B0A5B39B18E ====
Come Taste the Band — десятый студийный альбом группы Deep Purple, вышедший в октябре 1975 года. Запись диска проходила с 3 августа по 1 сентября 1975 года в студии «Musicland Studios» в Мюнхене. Альбом вышел в октябре. Это единственный студийный альбом, записанный с участием Томми Болина, который был приглашён взамен покинувшего группу Ричи Блэкмора. После тура в поддержку альбома группа распалась. Последний концерт в этом составе состоялся 15 марта, но официальное сообщение о том, что Deep Purple прекратили свое существование было опубликовано только 6 июля. Через 5 месяцев после этого, 4 декабря 1976 года Томми Болин скончался от передозировки наркотиков. Данное издание приурочено к 35-ти летию с выхода альбома. Для тех кто смог дочитать. На CD2 находится ремиксированный вариант альбома, выполненный Kevin Shirley. Kevin Shirley является продюсером Joe Bonamassa, Black Country Communion и других.
- Tommy Bolin - lead guitars, vocals, bass guitar on "Comin' Home", backing vocals on "Comin' Home" and share vocal duties on "Dealer"
- David Coverdale - lead vocals
- Glenn Hughes - bass, vocals (lead vocals on "Gettin' Tighter" and "This Time Around")
- Jon Lord - keyboards, piano, synthesizer
- Ian Paice - drums, percussion


Трекер:  [ 26-Ноя-2012 18:35 ]

  

Скачать .torrent

Размер .torrent файла 44 KB


Размер: 4.12 GB
Хэш (hash) релиза: c38d3c69a1858a8ae71fdf93ee63fceea40ac07a

Еще никто не оставлял запись к записи скачать торрент Deep Purple - Machine Head 40th Deluxe, Burn 30th, Stormbringer 35th, Come Taste The Band 35th . Будь первым!

!Обратная связь