Скачать через торрент музыку Jeff Kollman - Silence In The Corridor - 2012, FLAC бесплатно без регистрации torrent

Если у вас наблюдаются проблемы со скриншотами, переходом по ссылками, скачиванием торрентов - проблемы в блокировщике рекламы AdBlock. #хорошегоДня!


Статистика раздачи
Размер:  327 MB   |    Зарегистрирован:  4 года 11 месяцев   |    .torrent скачан:  20 раз   |   
Раздают:  1  
   
Загрузка...
 
Автор Сообщение

Galfimbul

avatar Galfimbul


Jeff Kollman / Silence In The Corridor

Жанр: Guitar Rock, Instrumental Rock, Fusion
Страна-производитель диска: USA
Год издания: 2012
Издатель (лейбл): Marmaduke Records
Номер по каталогу: C.N. 1017
Страна: USA
Аудиокодек: FLAC (*.flac)
Тип рипа: image+.cue
Битрейт аудио: lossless
Продолжительность: 0:52:54
Источник (релизер): Свой оригинальный диск
Наличие сканов в содержимом раздачи: да
Треклист:
1. Cosmo Ray Vaughan
2. West Coast Swagger
3. One Last Remark (Improvisation)
4. Silence In The Corridor (Tribute to Gary Moore)
5. Steer Clear Of The Border Town
6. Song For James (R.I.P. James Murray)
7. The New Nightmare
8. Afghan Headtrip
9. Time And The Inevitable
10. A Day Of Mourning
11. Unforgettable (Dedicated to Helen Kollman)
Exact Audio Copy V1.0 beta 1 from 15. November 2010

EAC extraction logfile from 20. November 2012, 22:05

Jeff Kollman / Silence In The Corridor

Used drive : HL-DT-STDVDRAM GSA-T50N Adapter: 0 ID: 1

Read mode : SecureUtilize accurate stream : YesDefeat audio cache : YesMake use of C2 pointers : No

Read offset correction : 667Overread into Lead-In and Lead-Out : NoFill up missing offset samples with silence : YesDelete leading and trailing silent blocks : NoNull samples used in CRC calculations : YesUsed interface : Native Win32 interface for Win NT & 2000

Used output format : User Defined EncoderSelected bitrate : 128 kBit/sQuality : HighAdd ID3 tag : NoCommand line compressor : C:\Program Files\Exact Audio Copy\Flac\flac.exeAdditional command line options : -8 -V %s

TOC of the extracted CD

Track | Start | Length | Start sector | End sector --------------------------------------------------------- 1 | 0:00.00 | 5:29.15 | 0 | 24689 2 | 5:29.15 | 5:07.57 | 24690 | 47771 3 | 10:36.72 | 1:36.52 | 47772 | 55023 4 | 12:13.49 | 6:30.12 | 55024 | 84285 5 | 18:43.61 | 4:40.40 | 84286 | 105325 6 | 23:24.26 | 5:53.73 | 105326 | 131873 7 | 29:18.24 | 6:05.46 | 131874 | 159294 8 | 35:23.70 | 3:28.05 | 159295 | 174899 9 | 38:52.00 | 5:01.08 | 174900 | 197482 10 | 43:53.08 | 5:44.54 | 197483 | 223336 11 | 49:37.62 | 3:17.10 | 223337 | 238121

Range status and errors

Selected range

Filename D:\Jeff Kollman - Silence In The Corridor.wav

Peak level 98.8 % Extraction speed 0.2 X Range quality 100.0 % Test CRC DBECF16D Copy CRC DBECF16D Copy OK

No errors occurred

AccurateRip summary

Track 1 not present in databaseTrack 2 not present in databaseTrack 3 not present in databaseTrack 4 not present in databaseTrack 5 not present in databaseTrack 6 not present in databaseTrack 7 not present in databaseTrack 8 not present in databaseTrack 9 not present in databaseTrack 10 not present in databaseTrack 11 not present in database

None of the tracks are present in the AccurateRip database

End of status report
Jeff Kollman - guitars, bass
Ed Roth - keyboards
Ric Fierabracci - bass
Jimmy Johnson - bass
Rufus Philpot - bass
Kevin Chown - bass
Shane Gaalaas - drums
Adam Gust - drums
Joel Taylor - drums
Jono Brown - drums
Raul Pineda - percussion
Lao Tizer - piano


Трекер:  [ 26-Ноя-2012 18:34 ]

  

Скачать .torrent

Размер .torrent файла 13 KB


Размер: 327 MB
Хэш (hash) релиза: c0e6f2b447fc7afd31123ba0149efcac3011b67f

Еще никто не оставлял запись к записи скачать торрент Jeff Kollman - Silence In The Corridor - 2012, FLAC . Будь первым!

!Обратная связь