Скачать через торрент музыку The Paladins - The Paladins - 1988, FLAC бесплатно без регистрации torrent

Если у вас наблюдаются проблемы со скриншотами, переходом по ссылками, скачиванием торрентов - проблемы в блокировщике рекламы AdBlock. #хорошегоДня!


Статистика раздачи
Размер:  233 MB   |    Зарегистрирован:  4 года 11 месяцев   |    .torrent скачан:  18 раз   |   
Раздают:  1  
   
Загрузка...
 
Автор Сообщение

Galfimbul

avatar Galfimbul


The Paladins / The Paladins

Жанр: Neo Rockabilly
Страна-производитель диска: Canada
Год издания: 1988
Издатель (лейбл): Wrestler Records
Номер по каталогу: WR 1687
Страна: USA, San Diego
Аудиокодек: FLAC (*.flac)
Тип рипа: image+.cue
Битрейт аудио: lossless
Продолжительность: 35:29
Источник (релизер): AUDELAS KINGDOM
Наличие сканов в содержимом раздачи: да
01. Hold On
02. Make It
03. Honky Tonk All Night
04. Let's Go
05. Lucky Man
06. Lover's Rock
07. Daddy Year
08. Come On Home
09. Bad Case Of Love
10. Let'er Roll
11. Slow Down

Exact Audio Copy V1.0 beta 2 from 29. April 2011

EAC extraction logfile from 9. November 2012, 18:38

The Paladins / The Paladins

Used drive : _NEC DVD_RW ND-3550A Adapter: 1 ID: 0

Read mode : SecureUtilize accurate stream : YesDefeat audio cache : YesMake use of C2 pointers : No

Read offset correction : 48Overread into Lead-In and Lead-Out : NoFill up missing offset samples with silence : YesDelete leading and trailing silent blocks : NoNull samples used in CRC calculations : YesUsed interface : Native Win32 interface for Win NT & 2000

Used output format : User Defined EncoderSelected bitrate : 768 kBit/sQuality : HighAdd ID3 tag : NoCommand line compressor : C:\Program Files\Exact Audio Copy\FLAC\FLAC.EXEAdditional command line options : -6 -V -T "ARTIST=%artist%" -T "TITLE=%title%" -T "ALBUM=%albumtitle%" -T "DATE=%year%" -T "TRACKNUMBER=%tracknr%" -T "GENRE=%genre%" -T "COMMENT=%comment%" -T "BAND=%albuminterpret%" -T "COMPOSER=%composer%" %haslyrics%--ta

TOC of the extracted CD

Track | Start | Length | Start sector | End sector --------------------------------------------------------- 1 | 0:00.00 | 3:54.27 | 0 | 17576 2 | 3:54.27 | 2:45.45 | 17577 | 29996 3 | 6:39.72 | 3:10.25 | 29997 | 44271 4 | 9:50.22 | 2:48.68 | 44272 | 56939 5 | 12:39.15 | 3:02.22 | 56940 | 70611 6 | 15:41.37 | 3:55.35 | 70612 | 88271 7 | 19:36.72 | 2:39.43 | 88272 | 100239 8 | 22:16.40 | 2:47.42 | 100240 | 112806 9 | 25:04.07 | 4:20.73 | 112807 | 132379 10 | 29:25.05 | 3:58.15 | 132380 | 150244 11 | 33:23.20 | 2:39.72 | 150245 | 162241

Range status and errors

Selected range

Filename D:\Muzika\The Paladins - The Paladins (1988)\The Paladins - The Paladins.wav

Peak level 100.0 % Extraction speed 3.9 X Range quality 100.0 % Test CRC 8B09BD2D Copy CRC 8B09BD2D Copy OK

No errors occurred

AccurateRip summary

Track 1 accurately ripped (confidence 1) [2641626C] (AR v1)Track 2 accurately ripped (confidence 1) [2981B055] (AR v1)Track 3 accurately ripped (confidence 1) [0012134A] (AR v1)Track 4 accurately ripped (confidence 1) [6F8DCB1B] (AR v1)Track 5 accurately ripped (confidence 1) [C0283AB4] (AR v1)Track 6 accurately ripped (confidence 1) [5C2FB4EA] (AR v1)Track 7 accurately ripped (confidence 1) [2E548AB5] (AR v1)Track 8 accurately ripped (confidence 1) [D35D4CD5] (AR v1)Track 9 accurately ripped (confidence 1) [CD94EC7D] (AR v1)Track 10 accurately ripped (confidence 1) [B9B0726C] (AR v1)Track 11 accurately ripped (confidence 1) [885D40AF] (AR v1)

All tracks accurately ripped

End of status report

==== Log checksum 1498FD4DCDCE89FC180E6FAE6011438809928423632AFA9EF9FE5360F56F0813 ====


Трекер:  [ 26-Ноя-2012 18:35 ]

  

Скачать .torrent

Размер .torrent файла 19 KB


Размер: 233 MB
Хэш (hash) релиза: 8e5021be033086ea0fdb13e6aca7c7147a996786

Еще никто не оставлял запись к записи скачать торрент The Paladins - The Paladins - 1988, FLAC . Будь первым!

!Обратная связь