Скачать через торрент музыку Ricky Norton & The Hot Rocks - Once Is Enough - 2002, FLAC бесплатно без регистрации torrent

Если у вас наблюдаются проблемы со скриншотами, переходом по ссылками, скачиванием торрентов - проблемы в блокировщике рекламы AdBlock. #хорошегоДня!


Статистика раздачи
Размер:  228 MB   |    Зарегистрирован:  4 года 11 месяцев   |    .torrent скачан:  9 раз   |   
Раздают:  1  
   
Загрузка...
 
Автор Сообщение

Galfimbul

avatar Galfimbul


Ricky Norton & The Hot Rocks / Once Is Enough

Жанр: Rock'n'Roll
Страна-производитель диска: France
Год издания: 2002
Издатель (лейбл): MAM Productions
Номер по каталогу: 1989552
Страна: France
Аудиокодек: FLAC (*.flac)
Тип рипа: image+.cue
Битрейт аудио: lossless
Продолжительность: 35:43
Источник (релизер): AUDELAS KINGDOM
Наличие сканов в содержимом раздачи: да
01. Ain't That Lovin' You Baby
02. Fool, Fool, Fool
03. Little Cabin on the Hill
04. I'm Gonna Sit Right Down and Cry
05. Anyplace Is Paradise
06. Heart of Stone
07. I Beg of You
08. My Happiness
09. Such a Night
10. Tweedle Dee
11. Big Hunk O' Love
12. I Want You, I Need You, I Love You
13. Once Is Enough
14. I Shall Not Be Moved
15. Shake, Rattle and Roll

Exact Audio Copy V1.0 beta 2 from 29. April 2011

EAC extraction logfile from 9. November 2012, 19:26

Ricky Norton & The Hot Rocks / Once Is Enough

Used drive : _NEC DVD_RW ND-3550A Adapter: 1 ID: 0

Read mode : SecureUtilize accurate stream : YesDefeat audio cache : YesMake use of C2 pointers : No

Read offset correction : 48Overread into Lead-In and Lead-Out : NoFill up missing offset samples with silence : YesDelete leading and trailing silent blocks : NoNull samples used in CRC calculations : YesUsed interface : Native Win32 interface for Win NT & 2000

Used output format : User Defined EncoderSelected bitrate : 768 kBit/sQuality : HighAdd ID3 tag : NoCommand line compressor : C:\Program Files\Exact Audio Copy\FLAC\FLAC.EXEAdditional command line options : -6 -V -T "ARTIST=%artist%" -T "TITLE=%title%" -T "ALBUM=%albumtitle%" -T "DATE=%year%" -T "TRACKNUMBER=%tracknr%" -T "GENRE=%genre%" -T "COMMENT=%comment%" -T "BAND=%albuminterpret%" -T "COMPOSER=%composer%" %haslyrics%--ta

TOC of the extracted CD

Track | Start | Length | Start sector | End sector --------------------------------------------------------- 1 | 0:00.00 | 1:57.74 | 0 | 8848 2 | 1:57.74 | 2:35.69 | 8849 | 20542 3 | 4:33.68 | 2:59.02 | 20543 | 33969 4 | 7:32.70 | 2:02.01 | 33970 | 43120 5 | 9:34.71 | 2:14.08 | 43121 | 53178 6 | 11:49.04 | 2:20.27 | 53179 | 63705 7 | 14:09.31 | 1:50.31 | 63706 | 71986 8 | 15:59.62 | 2:26.30 | 71987 | 82966 9 | 18:26.17 | 2:52.74 | 82967 | 95940 10 | 21:19.16 | 2:16.31 | 95941 | 106171 11 | 23:35.47 | 2:08.22 | 106172 | 115793 12 | 25:43.69 | 2:46.54 | 115794 | 128297 13 | 28:30.48 | 2:05.29 | 128298 | 137701 14 | 30:36.02 | 2:49.03 | 137702 | 150379 15 | 33:25.05 | 2:29.04 | 150380 | 161558

Range status and errors

Selected range

Filename D:\Muzika\Ricky Norton & The Hot Rocks - Once Is Enough\Ricky Norton & The Hot Rocks - Once Is Enough.wav

Peak level 87.3 % Extraction speed 4.4 X Range quality 100.0 % Test CRC 8913AC3B Copy CRC 8913AC3B Copy OK

No errors occurred

AccurateRip summary

Track 1 not present in databaseTrack 2 not present in databaseTrack 3 not present in databaseTrack 4 not present in databaseTrack 5 not present in databaseTrack 6 not present in databaseTrack 7 not present in databaseTrack 8 not present in databaseTrack 9 not present in databaseTrack 10 not present in databaseTrack 11 not present in databaseTrack 12 not present in databaseTrack 13 not present in databaseTrack 14 not present in databaseTrack 15 not present in database

None of the tracks are present in the AccurateRip database

End of status report

==== Log checksum FD9850F1717955442851E94CFDE3DE62A54EE64CCB5795D9ACD7DB82075C55F3 ====


Трекер:  [ 26-Ноя-2012 18:37 ]

  

Скачать .torrent

Размер .torrent файла 18 KB


Размер: 228 MB
Хэш (hash) релиза: 2eeb89d38123389dfb1eeb896757f2c62d62d939

Еще никто не оставлял запись к записи скачать торрент Ricky Norton & The Hot Rocks - Once Is Enough - 2002, FLAC . Будь первым!

!Обратная связь