Скачать через торрент музыку Johnny Otis - Creepin With The Cats 55-57 - 1991, FLAC бесплатно без регистрации torrent

Если у вас наблюдаются проблемы со скриншотами, переходом по ссылками, скачиванием торрентов - проблемы в блокировщике рекламы AdBlock. #хорошегоДня!


Статистика раздачи
Размер:  176 MB   |    Зарегистрирован:  4 года 8 месяцев   |    .torrent скачан:  13 раз   |   
Раздают:  1  
   
Загрузка...
 
Автор Сообщение

Galfimbul

avatar Galfimbul


Johnny Otis / Creepin' With The Cats

Жанр: Rock'n'Roll / Jump Blues
Страна-производитель диска: UK
Год издания: 1991
Издатель (лейбл): Ace Records Ltd.
Номер по каталогу: CDCHD 325
Страна: USA
Аудиокодек: FLAC (*.flac)
Тип рипа: image+.cue
Битрейт аудио: lossless
Продолжительность: 63:13
Источник (релизер): AUDELAS KINGDOM
Наличие сканов в содержимом раздачи: да
01. Midnight Creeper Part 1
02. Driftin' Blues
03. Ali Baba's Boogie
04. Let The Sun Shine In My Life (Once More)
05. Hey! Hey! Hey! Hey!
06. Dog Face Boy Part 1
07. Dog Face Boy Part 2
08. Show Me The Way To Go Home
09. Sleepy Shines Butt Shuffle
10. Organ Grinder's Swing
11. Someday
12. Sadie
13. Butterball
14. Wa-Wa Part 1
15. My Eyes Are Full Of Tears
16. Turtle Dove
17. Groove Juice
18. Trouble On My Mind
19. Number 69 / Number 21
20. The Creeper Returns
21. Stop, Look And Love Me
22. The Night Is Young (And You're So Fine)

Exact Audio Copy V1.0 beta 2 from 29. April 2011

EAC extraction logfile from 10. November 2012, 8:02

Johnny Otis / Creepin' With The Cats

Used drive : _NEC DVD_RW ND-3550A Adapter: 1 ID: 0

Read mode : SecureUtilize accurate stream : YesDefeat audio cache : YesMake use of C2 pointers : No

Read offset correction : 48Overread into Lead-In and Lead-Out : NoFill up missing offset samples with silence : YesDelete leading and trailing silent blocks : NoNull samples used in CRC calculations : YesUsed interface : Native Win32 interface for Win NT & 2000

Used output format : User Defined EncoderSelected bitrate : 768 kBit/sQuality : HighAdd ID3 tag : NoCommand line compressor : C:\Program Files\Exact Audio Copy\FLAC\FLAC.EXEAdditional command line options : -6 -V -T "ARTIST=%artist%" -T "TITLE=%title%" -T "ALBUM=%albumtitle%" -T "DATE=%year%" -T "TRACKNUMBER=%tracknr%" -T "GENRE=%genre%" -T "COMMENT=%comment%" -T "BAND=%albuminterpret%" -T "COMPOSER=%composer%" %haslyrics%--ta

TOC of the extracted CD

Track | Start | Length | Start sector | End sector --------------------------------------------------------- 1 | 0:00.00 | 2:55.62 | 0 | 13186 2 | 2:55.62 | 3:05.18 | 13187 | 27079 3 | 6:01.05 | 2:20.67 | 27080 | 37646 4 | 8:21.72 | 2:36.40 | 37647 | 49386 5 | 10:58.37 | 2:56.43 | 49387 | 62629 6 | 13:55.05 | 2:27.72 | 62630 | 73726 7 | 16:23.02 | 3:03.05 | 73727 | 87456 8 | 19:26.07 | 1:47.45 | 87457 | 95526 9 | 21:13.52 | 2:52.28 | 95527 | 108454 10 | 24:06.05 | 2:26.12 | 108455 | 119416 11 | 26:32.17 | 2:24.60 | 119417 | 130276 12 | 28:57.02 | 2:45.40 | 130277 | 142691 13 | 31:42.42 | 2:41.25 | 142692 | 154791 14 | 34:23.67 | 2:54.05 | 154792 | 167846 15 | 37:17.72 | 2:43.33 | 167847 | 180104 16 | 40:01.30 | 2:32.47 | 180105 | 191551 17 | 42:34.02 | 3:00.00 | 191552 | 205051 18 | 45:34.02 | 2:36.23 | 205052 | 216774 19 | 48:10.25 | 2:08.67 | 216775 | 226441 20 | 50:19.17 | 2:48.25 | 226442 | 239066 21 | 53:07.42 | 2:23.30 | 239067 | 249821 22 | 55:30.72 | 2:01.58 | 249822 | 258954

Range status and errors

Selected range

Filename D:\Muzika\Johnny Otis - Creepin' With The Cats (1991)\Johnny Otis - Creepin' With The Cats.wav

Peak level 99.5 % Extraction speed 5.2 X Range quality 100.0 % Test CRC A03DD5FA Copy CRC A03DD5FA Copy OK

No errors occurred

AccurateRip summary

Track 1 cannot be verified as accurate (confidence 1) [3793E4FF], AccurateRip returned [CFA9B308] (AR v2)Track 2 cannot be verified as accurate (confidence 1) [9AC5E59A], AccurateRip returned [6331BA34] (AR v2)Track 3 cannot be verified as accurate (confidence 1) [8DCB37DE], AccurateRip returned [18F70628] (AR v2)Track 4 cannot be verified as accurate (confidence 1) [26DA89CA], AccurateRip returned [146E00C5] (AR v2)Track 5 cannot be verified as accurate (confidence 1) [A1354671], AccurateRip returned [14FF5146] (AR v2)Track 6 cannot be verified as accurate (confidence 1) [29D0E7C7], AccurateRip returned [8206C036] (AR v2)Track 7 cannot be verified as accurate (confidence 1) [C1F66995], AccurateRip returned [E753E5CF] (AR v2)Track 8 cannot be verified as accurate (confidence 1) [1FC29295], AccurateRip returned [049BB03E] (AR v2)Track 9 cannot be verified as accurate (confidence 1) [36AB4C9A], AccurateRip returned [CB02AC64] (AR v2)Track 10 cannot be verified as accurate (confidence 1) [40A04668], AccurateRip returned [66CDBFD2] (AR v2)Track 11 cannot be verified as accurate (confidence 1) [67982FA8], AccurateRip returned [E29D805D] (AR v2)Track 12 cannot be verified as accurate (confidence 1) [71E1C397], AccurateRip returned [5FBDF8C2] (AR v2)Track 13 cannot be verified as accurate (confidence 1) [295CE37E], AccurateRip returned [C33285F1] (AR v2)Track 14 cannot be verified as accurate (confidence 1) [B49E0034], AccurateRip returned [613A79F7] (AR v2)Track 15 cannot be verified as accurate (confidence 1) [C5222659], AccurateRip returned [AAC75918] (AR v2)Track 16 cannot be verified as accurate (confidence 1) [1992A391], AccurateRip returned [B2D99572] (AR v2)Track 17 cannot be verified as accurate (confidence 1) [072985CA], AccurateRip returned [DF6EA608] (AR v2)Track 18 cannot be verified as accurate (confidence 1) [35859A94], AccurateRip returned [FC61720D] (AR v2)Track 19 cannot be verified as accurate (confidence 1) [32F8F5E6], AccurateRip returned [EF0610FD] (AR v2)Track 20 cannot be verified as accurate (confidence 1) [79B54762], AccurateRip returned [6E405D87] (AR v2)Track 21 cannot be verified as accurate (confidence 1) [D2FAC4CD], AccurateRip returned [35FC5A9B] (AR v2)Track 22 cannot be verified as accurate (confidence 1) [0AEC317D], AccurateRip returned [42C474E7] (AR v2)

No tracks could be verified as accurateYou may have a different pressing from the one(s) in the database

End of status report

==== Log checksum EE329AE4C7768BDF6371E9BE4E3E20C644DBEBA0E73BB257524E328C34B927AF ====


Трекер:  [ 26-Ноя-2012 18:37 ]

  

Скачать .torrent

Размер .torrent файла 14 KB


Размер: 176 MB
Хэш (hash) релиза: acec11fbd178be9eb60376df2c357b8da263d931

Еще никто не оставлял запись к записи скачать торрент Johnny Otis - Creepin With The Cats 55-57 - 1991, FLAC . Будь первым!

!Обратная связь