Скачать через торрент музыку Pee Wee & The Specials - Pee Wee & The Specials - 1980, FLAC бесплатно без регистрации torrent

Если у вас наблюдаются проблемы со скриншотами, переходом по ссылками, скачиванием торрентов - проблемы в блокировщике рекламы AdBlock. #хорошегоДня!


Статистика раздачи
Размер:  253 MB   |    Зарегистрирован:  4 года 11 месяцев   |    .torrent скачан:  4 раза   |   
Раздают:  1  
   
Загрузка...
 
Автор Сообщение

Galfimbul

avatar Galfimbul


Pee Wee & The Specials / Pee Wee & The Specials

Жанр: Doo-Wop/Shoo-Wop/Ding-A-Ling
Страна-производитель диска: Netherlands
Год издания: 1980 (2001)
Издатель (лейбл): Rarity Records
Номер по каталогу: C192634
Страна: Netherlands
Аудиокодек: FLAC (*.flac)
Тип рипа: image+.cue
Битрейт аудио: lossless
Продолжительность: 45:00
Источник (релизер): AUDELAS KINGDOM
Наличие сканов в содержимом раздачи: да
01. Mama Said
02. I Knew From The Start
03. Most Of All
04. Juanita
05. Walking Along
06. In The Still Of The Night
07. Teenage Love
08. Truckstop Cafe Queen
09. Mini-Rock
10. Bristol Stomp
11. I'm Still (Not Over You)
12. I've A Boyfriend
13. False Alarm
14. Buying Your Love
15. Wedding Bells
16. Someday
17. Love Love Love
18. Lily Maebelle

Exact Audio Copy V1.0 beta 2 from 29. April 2011

EAC extraction logfile from 10. November 2012, 9:22

Pee Wee & The Specials / Pee Wee & The Specials

Used drive : _NEC DVD_RW ND-3550A Adapter: 1 ID: 0

Read mode : SecureUtilize accurate stream : YesDefeat audio cache : YesMake use of C2 pointers : No

Read offset correction : 48Overread into Lead-In and Lead-Out : NoFill up missing offset samples with silence : YesDelete leading and trailing silent blocks : NoNull samples used in CRC calculations : YesUsed interface : Native Win32 interface for Win NT & 2000

Used output format : User Defined EncoderSelected bitrate : 768 kBit/sQuality : HighAdd ID3 tag : NoCommand line compressor : C:\Program Files\Exact Audio Copy\FLAC\FLAC.EXEAdditional command line options : -6 -V -T "ARTIST=%artist%" -T "TITLE=%title%" -T "ALBUM=%albumtitle%" -T "DATE=%year%" -T "TRACKNUMBER=%tracknr%" -T "GENRE=%genre%" -T "COMMENT=%comment%" -T "BAND=%albuminterpret%" -T "COMPOSER=%composer%" %haslyrics%--ta

TOC of the extracted CD

Track | Start | Length | Start sector | End sector --------------------------------------------------------- 1 | 0:00.00 | 2:06.47 | 0 | 9496 2 | 2:06.47 | 2:39.05 | 9497 | 21426 3 | 4:45.52 | 2:33.25 | 21427 | 32926 4 | 7:19.02 | 2:35.23 | 32927 | 44574 5 | 9:54.25 | 2:08.32 | 44575 | 54206 6 | 12:02.57 | 2:58.68 | 54207 | 67624 7 | 15:01.50 | 1:37.37 | 67625 | 74936 8 | 16:39.12 | 2:29.13 | 74937 | 86124 9 | 19:08.25 | 0:23.35 | 86125 | 87884 10 | 19:31.60 | 2:15.25 | 87885 | 98034 11 | 21:47.10 | 2:00.20 | 98035 | 107054 12 | 23:47.30 | 2:46.12 | 107055 | 119516 13 | 26:33.42 | 2:08.70 | 119517 | 129186 14 | 28:42.37 | 1:30.43 | 129187 | 135979 15 | 30:13.05 | 2:19.22 | 135980 | 146426 16 | 32:32.27 | 1:56.03 | 146427 | 155129 17 | 34:28.30 | 2:00.65 | 155130 | 164194 18 | 36:29.20 | 1:33.57 | 164195 | 171226

Range status and errors

Selected range

Filename D:\Muzika\Pee Wee & The Specials - Pee Wee & The Specials (1980)\Pee Wee & The Specials - Pee Wee & The Specials.wav

Peak level 98.4 % Extraction speed 1.8 X Range quality 100.0 % Test CRC F114112B Copy CRC F114112B Copy OK

No errors occurred

AccurateRip summary

Track 1 not present in databaseTrack 2 not present in databaseTrack 3 not present in databaseTrack 4 not present in databaseTrack 5 not present in databaseTrack 6 not present in databaseTrack 7 not present in databaseTrack 8 not present in databaseTrack 9 not present in databaseTrack 10 not present in databaseTrack 11 not present in databaseTrack 12 not present in databaseTrack 13 not present in databaseTrack 14 not present in databaseTrack 15 not present in databaseTrack 16 not present in databaseTrack 17 not present in databaseTrack 18 not present in database

None of the tracks are present in the AccurateRip database

End of status report

==== Log checksum 1ED791153C1F91B4BA7C6271424403742FFBCF621CD6B2C34B26337CA6EB6466 ====


Трекер:  [ 26-Ноя-2012 18:37 ]

  

Скачать .torrent

Размер .torrent файла 20 KB


Размер: 253 MB
Хэш (hash) релиза: e41533b6132947d281fcf4e2fbfb9caf9b61f20f

Еще никто не оставлял запись к записи скачать торрент Pee Wee & The Specials - Pee Wee & The Specials - 1980, FLAC . Будь первым!

!Обратная связь