Скачать через торрент музыку The Aquatudes - Unsafe At Any Speed - 2012, FLAC бесплатно без регистрации torrent

Если у вас наблюдаются проблемы со скриншотами, переходом по ссылками, скачиванием торрентов - проблемы в блокировщике рекламы AdBlock. #хорошегоДня!


Статистика раздачи
Размер:  298 MB   |    Зарегистрирован:  4 года 8 месяцев   |    .torrent скачан:  9 раз   |   
Раздают:  1  
   
Загрузка...
 
Автор Сообщение

Galfimbul

avatar Galfimbul


The Aquatudes

Unsafe At Any Speed

Жанр: Surf, Instrumental Rock
Страна-производитель диска: USA
Год издания: 2012
Аудиокодек: FLAC (*.flac)
Тип рипа: image+.cue
Битрейт аудио: lossless
Продолжительность: 39:53
Источник (релизер): ©СЁРФ-Маrаtones aka izia1956
Наличие сканов в содержимом раздачи: да



01. Corvair 500 (3:44)
02. Sand in My Groove (3:01)
03. Mosquito Dance (3:46)
04. Take the Pipe (3:42)
05. Aquatudes Theme (3:08)
06. Dr. Why (2:37)
07. Shim Jambs Before Cutting Bands (2:10)
08. Cindy in the Sun (3:26)
09. Bongo Shmongo (3:55)
10. Lawnmower Stroll (3:44)
11. Roadtrip! (3:26)
12. Puncture & Incinerate (3:08)

Exact Audio Copy V0.99 prebeta 5 from 4. May 2009

Отчёт EAC об извлечении, выполненном 10. ноября 2012, 10:01

The Aquatudes / Unsafe At Any Speed

Дисковод: PLEXTOR DVDR PX-880SA Adapter: 1 ID: 0

Режим чтения : ДостоверностьИспользование точного потока : ДаОтключение кэша аудио : ДаИспользование указателей C2 : Нет

Коррекция смещения при чтении : 6Способность читать области Lead-in и Lead-out : НетЗаполнение пропущенных сэмплов тишиной : ДаУдаление блоков с тишиной в начале и конце : НетПри вычислениях CRC использовались нулевые сэмплы : ДаИнтерфейс : Установленный внешний ASPI-интерфейс

Выходной формат : Пользовательский кодировщикВыбранный битрейт : 1024 kBit/sКачество : ВысокийДобавление ID3-тэга : НетУтилита сжатия : C:\Program Files\Exact Audio Copy\FLAC\FLAC.EXEДополнительные параметры : -10 -V -T "ARTIST=%a" -T "TITLE=%t" -T "ALBUM=%g" -T "DATE=%y" -T "TRACKNUMBER=%n" -T "GENRE=%m" -T "COMMENT=%e" %s -o %d

TOC извлечённого CD

Трек | Старт | Длительность | Начальный сектор | Конечный сектор --------------------------------------------------------------------- 1 | 0:00.00 | 3:44.66 | 0 | 16865 2 | 3:44.66 | 3:01.22 | 16866 | 30462 3 | 6:46.13 | 3:46.02 | 30463 | 47414 4 | 10:32.15 | 3:42.12 | 47415 | 64076 5 | 14:14.27 | 3:08.03 | 64077 | 78179 6 | 17:22.30 | 2:37.73 | 78180 | 90027 7 | 20:00.28 | 2:10.70 | 90028 | 99847 8 | 22:11.23 | 3:26.74 | 99848 | 115371 9 | 25:38.22 | 3:55.34 | 115372 | 133030 10 | 29:33.56 | 3:44.74 | 133031 | 149904 11 | 33:18.55 | 3:26.71 | 149905 | 165425 12 | 36:45.51 | 3:08.14 | 165426 | 179539

Характеристики диапазона извлечения и сообщения об ошибках

Выбранный диапазон

Имя файла F:\BitComet\The Aquatudes - Unsafe At Any Speed(2012)(flac)\The Aquatudes - Unsafe At Any Speed.wav

Пиковый уровень 100.0 % Качество диапазона 99.9 % CRC теста 5E8A78CC CRC копии 5E8A78CC Копирование... OK

Ошибок не произошло

AccurateRip: сводка

Трек 1 нет в базе данныхТрек 2 нет в базе данныхТрек 3 нет в базе данныхТрек 4 нет в базе данныхТрек 5 нет в базе данныхТрек 6 нет в базе данныхТрек 7 нет в базе данныхТрек 8 нет в базе данныхТрек 9 нет в базе данныхТрек 10 нет в базе данныхТрек 11 нет в базе данныхТрек 12 нет в базе данных

Ни одного трека нет в базе AccurateRip

Конец отчёта
The Aquatudes are a surf-rock trio based in Central Connecticut. Formed in 2007, the band has played throughout Connecticut and in NYC and Newport, Rhode Island. The band consists of Tom Bittel on guitar, Dick Bascom on Drums, and Mike Rocchetti on bass. Part-time Aquatude Dr. Dave Bittel plays with the band during the summer months and contributed keyboard parts to four tracks on the album. The band performs original instrumental and vocal songs, as well as some carefully-selected covers.

"Unsafe at Any Speed!" was recorded at Dad’s Noisy Basement, in West Hartford, Conn., from spring of 2010 through spring of 2012. The 12 original instrumental tracks were produced and engineered by Tom Bittel and mastered by Rich Silva at RASer Studios in Meriden, Conn. Cover and disk art by Tom Bittel.


Трекер:  [ 26-Ноя-2012 18:37 ]

  

Скачать .torrent

Размер .torrent файла 12 KB


Размер: 298 MB
Хэш (hash) релиза: 706473de9ad46e0f2bcdd69e02b8b13d0b4bd0f2

Еще никто не оставлял запись к записи скачать торрент The Aquatudes - Unsafe At Any Speed - 2012, FLAC . Будь первым!

!Обратная связь