Скачать через торрент музыку The Moonglows - Blue Velvet бесплатно без регистрации torrent

Если у вас наблюдаются проблемы со скриншотами, переходом по ссылками, скачиванием торрентов - проблемы в блокировщике рекламы AdBlock. #хорошегоДня!


Статистика раздачи
Размер:  444 MB   |    Зарегистрирован:  4 года 8 месяцев   |    .torrent скачан:  7 раз   |   
Раздают:  1  
   
Загрузка...
 
Автор Сообщение

Galfimbul

avatar Galfimbul


The Moonglows / Blue Velvet



Жанр: Doo Wop
Страна-производитель диска: Germany
Год издания: 1993
Издатель (лейбл): MCA Records
Номер по каталогу: MCD09345
Страна: USA
Аудиокодек: FLAC (*.flac)
Тип рипа: image+.cue
Битрейт аудио: lossless
Продолжительность: 54:05 ; 59:22
Источник (релизер): AUDELAS KINGDOM
Наличие сканов в содержимом раздачи: да
01. Secret Love
02. My Gal
03. Baby Please
04. Sincerely
05. Shoo Doo Be Doo (My Loving Baby)
06. So All Alone
07. Tempting
08. Most Of All
09. New Gal
10. He Lied
11. She's Gone
12. Hug And A Kiss
13. Starlite
14. Slow Down
15. Foolish Me
16. In Love
17. In My Diary
18. Lover, Love Me
19. Let's Go
20. We Go Together
21. Chickie Um Bah
22. When I'm With You
01. See Saw
02. Penny Arcade
03. Over And Over Again
04. I Knew From The Start
05. I'll Stop Wanting You
06. I'm Afraid The Masquerade Is Over
07. Don't Say Goodbye
08. Please Send Me Someone To Love
09. Blue Velvet
10. Love Is A River
11. The Beating Of My Heart
12. Mr. Engineer
13. Here I Am
14. Too Late
15. What Are You Going To Do?
16. Confess It To Your Heart
17. Ten Commandments Of Love
18. 1Don't Be Afraid Of Love
19. Sweeter Than Words
20. Twelve Months Of The Year
21. Mama Loocie
22. She's Alright With Me
Exact Audio Copy V1.0 beta 2 from 29. April 2011

EAC extraction logfile from 10. November 2012, 16:37

The Moonglows / Blue Velvet (The Ultimate Collection) [CD 1]

Used drive : _NEC DVD_RW ND-3550A Adapter: 1 ID: 0

Read mode : SecureUtilize accurate stream : YesDefeat audio cache : YesMake use of C2 pointers : No

Read offset correction : 48Overread into Lead-In and Lead-Out : NoFill up missing offset samples with silence : YesDelete leading and trailing silent blocks : NoNull samples used in CRC calculations : YesUsed interface : Native Win32 interface for Win NT & 2000

Used output format : User Defined EncoderSelected bitrate : 768 kBit/sQuality : HighAdd ID3 tag : NoCommand line compressor : C:\Program Files\Exact Audio Copy\FLAC\FLAC.EXEAdditional command line options : -6 -V -T "ARTIST=%artist%" -T "TITLE=%title%" -T "ALBUM=%albumtitle%" -T "DATE=%year%" -T "TRACKNUMBER=%tracknr%" -T "GENRE=%genre%" -T "COMMENT=%comment%" -T "BAND=%albuminterpret%" -T "COMPOSER=%composer%" %haslyrics%--ta

TOC of the extracted CD

Track | Start | Length | Start sector | End sector --------------------------------------------------------- 1 | 0:00.33 | 2:49.37 | 33 | 12744 2 | 2:49.70 | 2:41.13 | 12745 | 24832 3 | 5:31.08 | 2:53.30 | 24833 | 37837 4 | 8:24.38 | 3:12.12 | 37838 | 52249 5 | 11:36.50 | 2:55.68 | 52250 | 65442 6 | 14:32.43 | 3:13.22 | 65443 | 79939 7 | 17:45.65 | 2:15.60 | 79940 | 90124 8 | 20:01.50 | 3:04.50 | 90125 | 103974 9 | 23:06.25 | 3:02.10 | 103975 | 117634 10 | 26:08.35 | 3:18.50 | 117635 | 132534 11 | 29:27.10 | 2:55.08 | 132535 | 145667 12 | 32:22.18 | 3:17.27 | 145668 | 160469 13 | 35:39.45 | 2:45.25 | 160470 | 172869 14 | 38:24.70 | 2:54.50 | 172870 | 185969 15 | 41:19.45 | 2:24.00 | 185970 | 196769 16 | 43:43.45 | 2:43.33 | 196770 | 209027 17 | 46:27.03 | 2:43.12 | 209028 | 221264 18 | 49:10.15 | 2:20.60 | 221265 | 231824 19 | 51:31.00 | 2:30.50 | 231825 | 243124 20 | 54:01.50 | 2:44.68 | 243125 | 255492 21 | 56:46.43 | 2:43.52 | 255493 | 267769 22 | 59:30.20 | 2:32.13 | 267770 | 279182

Range status and errors

Selected range

Filename D:\Muzika\The Moonglows - Blue Velvet (The Ultimate Collection) (1993)\The Moonglows - Blue Velvet (The Ultimate Collection) [CD 1].wav

Peak level 98.8 % Extraction speed 2.1 X Range quality 100.0 % Test CRC 400CA6E1 Copy CRC 400CA6E1 Copy OK

No errors occurred

AccurateRip summary

Track 1 not present in databaseTrack 2 not present in databaseTrack 3 not present in databaseTrack 4 not present in databaseTrack 5 not present in databaseTrack 6 not present in databaseTrack 7 not present in databaseTrack 8 not present in databaseTrack 9 not present in databaseTrack 10 not present in databaseTrack 11 not present in databaseTrack 12 not present in databaseTrack 13 not present in databaseTrack 14 not present in databaseTrack 15 not present in databaseTrack 16 not present in databaseTrack 17 not present in databaseTrack 18 not present in databaseTrack 19 not present in databaseTrack 20 not present in databaseTrack 21 not present in databaseTrack 22 not present in database

None of the tracks are present in the AccurateRip database

End of status report

==== Log checksum 5208E559F8B996A88AEE559056EC3F16FFEC91B89F74C1854BF6C5D2CA9903C6 ====
Exact Audio Copy V1.0 beta 2 from 29. April 2011

EAC extraction logfile from 10. November 2012, 17:11

The Moonglows / Blue Velvet (The Ultimate Collection) [CD 2]

Used drive : _NEC DVD_RW ND-3550A Adapter: 1 ID: 0

Read mode : SecureUtilize accurate stream : YesDefeat audio cache : YesMake use of C2 pointers : No

Read offset correction : 48Overread into Lead-In and Lead-Out : NoFill up missing offset samples with silence : YesDelete leading and trailing silent blocks : NoNull samples used in CRC calculations : YesUsed interface : Native Win32 interface for Win NT & 2000

Used output format : User Defined EncoderSelected bitrate : 768 kBit/sQuality : HighAdd ID3 tag : NoCommand line compressor : C:\Program Files\Exact Audio Copy\FLAC\FLAC.EXEAdditional command line options : -6 -V -T "ARTIST=%artist%" -T "TITLE=%title%" -T "ALBUM=%albumtitle%" -T "DATE=%year%" -T "TRACKNUMBER=%tracknr%" -T "GENRE=%genre%" -T "COMMENT=%comment%" -T "BAND=%albuminterpret%" -T "COMPOSER=%composer%" %haslyrics%--ta

TOC of the extracted CD

Track | Start | Length | Start sector | End sector --------------------------------------------------------- 1 | 0:00.33 | 2:28.02 | 33 | 11134 2 | 2:28.35 | 2:49.65 | 11135 | 23874 3 | 5:18.25 | 1:59.30 | 23875 | 32829 4 | 7:17.55 | 2:05.20 | 32830 | 42224 5 | 9:23.00 | 2:49.35 | 42225 | 54934 6 | 12:12.35 | 2:23.25 | 54935 | 65684 7 | 14:35.60 | 2:44.20 | 65685 | 78004 8 | 17:20.05 | 2:21.55 | 78005 | 88634 9 | 19:41.60 | 3:05.65 | 88635 | 102574 10 | 22:47.50 | 2:48.60 | 102575 | 115234 11 | 25:36.35 | 2:24.20 | 115235 | 126054 12 | 28:00.55 | 2:08.45 | 126055 | 135699 13 | 30:09.25 | 2:19.33 | 135700 | 146157 14 | 32:28.58 | 2:40.62 | 146158 | 158219 15 | 35:09.45 | 2:16.73 | 158220 | 168492 16 | 37:26.43 | 2:07.40 | 168493 | 178057 17 | 39:34.08 | 4:08.70 | 178058 | 196727 18 | 43:43.03 | 2:52.52 | 196728 | 209679 19 | 46:35.55 | 3:34.00 | 209680 | 225729 20 | 50:09.55 | 3:08.15 | 225730 | 239844 21 | 53:17.70 | 2:30.13 | 239845 | 251107 22 | 55:48.08 | 4:41.25 | 251108 | 272207

Range status and errors

Selected range

Filename D:\Muzika\The Moonglows - Blue Velvet (The Ultimate Collection) (1993)\The Moonglows - Blue Velvet (The Ultimate Collection) [CD 2].wav

Peak level 98.8 % Extraction speed 5.4 X Range quality 99.9 % Test CRC 65D725A1 Copy CRC 65D725A1 Copy OK

No errors occurred

AccurateRip summary

Track 1 not present in databaseTrack 2 not present in databaseTrack 3 not present in databaseTrack 4 not present in databaseTrack 5 not present in databaseTrack 6 not present in databaseTrack 7 not present in databaseTrack 8 not present in databaseTrack 9 not present in databaseTrack 10 not present in databaseTrack 11 not present in databaseTrack 12 not present in databaseTrack 13 not present in databaseTrack 14 not present in databaseTrack 15 not present in databaseTrack 16 not present in databaseTrack 17 not present in databaseTrack 18 not present in databaseTrack 19 not present in databaseTrack 20 not present in databaseTrack 21 not present in databaseTrack 22 not present in database

None of the tracks are present in the AccurateRip database

End of status report

==== Log checksum 74136CA895A6B582ED05FA809C18C0638EB3F64A80C58B91D3D6FB37AD484E8F ====


Трекер:  [ 26-Ноя-2012 18:38 ]

  

Скачать .torrent

Размер .torrent файла 18 KB


Размер: 444 MB
Хэш (hash) релиза: d2691153fd0ddebc0a2489084ee9a9b65e2bc9b8

Еще никто не оставлял запись к записи скачать торрент The Moonglows - Blue Velvet . Будь первым!

!Обратная связь