Скачать через торрент музыку The Hotrod Hillbillies - Under The Texes Sky - 2005, APE бесплатно без регистрации torrent

Если у вас наблюдаются проблемы со скриншотами, переходом по ссылками, скачиванием торрентов - проблемы в блокировщике рекламы AdBlock. #хорошегоДня!


Статистика раздачи
Размер:  291 MB   |    Зарегистрирован:  4 года 8 месяцев   |    .torrent скачан:  23 раза   |   
Раздают:  1  
   
Загрузка...
 
Автор Сообщение

Galfimbul

avatar Galfimbul


The Hotrod Hillbillies / Under The Texes Sky

Жанр: Rockabilly / Hillbilly
Страна-производитель диска: США
Год издания: 2005
Издатель (лейбл): HRHB Records
Номер по каталогу: ?
Страна: США
Аудиокодек: APE (*.ape)
Тип рипа: image+.cue
Битрейт аудио: lossless
Продолжительность: 45'35
Источник (релизер): Рип с оригинального cd из своей коллекции
Наличие сканов в содержимом раздачи: да
Треклист:
1.Let's Alcoholass 1:44
2.Git Gone 1:58
3.Back Seat 3:13
4.Texas Sky 3:06
5.Go Go Girl 2:08
6.Dancer 2:50
7.Hot Rod Queen 2:36
8.Blue Balls 2:34
9.Spaghetti Western 3:18
10.Skulls 3:19
11.Redneck Girl 4:03
12.Pissed & Depressed 2:44
13.Alone & Blue 3:16
14.She's the Devil 2:28
15.Got to Go 3:23
16.Gracias 1:14
17.Mighty Thirsty 1:34
Exact Audio Copy V0.99 prebeta 3 from 28. July 2007

Отчёт EAC об извлечении, выполненном 9. ноября 2012, 23:35

Hotrod Hillbillies / Under The Texas Sky

Дисковод: ASUS DRW-24B3LT Adapter: 3 ID: 0

Режим чтения : ДостоверностьИспользование точного потока : ДаОтключение кэша аудио : ДаИспользование указателей C2 : Нет

Коррекция смещения при чтении : 6Способность читать области Lead-in и Lead-out : НетЗаполнение пропущенных сэмплов тишиной : ДаУдаление блоков с тишиной в начале и конце : НетПри вычислениях CRC использовались нулевые сэмплы : ДаИнтерфейс : Встроенный Win32-интерфейс для Win NT/2000

Выходной формат : Внутренние WAV-операцииФормат сэмплов : 44.100 Гц; 16 бит; стерео

TOC извлечённого CD

Трек | Старт | Длительность | Начальный сектор | Конечный сектор --------------------------------------------------------------------- 1 | 0:00.00 | 1:44.35 | 0 | 7834 2 | 1:44.35 | 1:58.07 | 7835 | 16691 3 | 3:42.42 | 3:13.62 | 16692 | 31228 4 | 6:56.29 | 3:06.22 | 31229 | 45200 5 | 10:02.51 | 2:08.16 | 45201 | 54816 6 | 12:10.67 | 2:50.44 | 54817 | 67610 7 | 15:01.36 | 2:36.52 | 67611 | 79362 8 | 17:38.13 | 2:34.17 | 79363 | 90929 9 | 20:12.30 | 3:18.06 | 90930 | 105785 10 | 23:30.36 | 3:19.59 | 105786 | 120769 11 | 26:50.20 | 4:03.37 | 120770 | 139031 12 | 30:53.57 | 2:44.30 | 139032 | 151361 13 | 33:38.12 | 3:16.42 | 151362 | 166103 14 | 36:54.54 | 2:28.26 | 166104 | 177229 15 | 39:23.05 | 3:23.49 | 177230 | 192503 16 | 42:46.54 | 1:14.11 | 192504 | 198064 17 | 44:00.65 | 1:34.57 | 198065 | 205171

Характеристики диапазона извлечения и сообщения об ошибках

Выбранный диапазон

Имя файла E:\The Hotrod Hillbillies-Under The Texes Sky\Hotrod Hillbillies - Under The Texas Sky.wav

Пиковый уровень 100.0 % Качество диапазона 100.0 % CRC теста 4E2317BE CRC копии 4E2317BE Копирование... OK

Ошибок не произошло

AccurateRip: сводка

Трек 1 нет в базе данныхТрек 2 нет в базе данныхТрек 3 нет в базе данныхТрек 4 нет в базе данныхТрек 5 нет в базе данныхТрек 6 нет в базе данныхТрек 7 нет в базе данныхТрек 8 нет в базе данныхТрек 9 нет в базе данныхТрек 10 нет в базе данныхТрек 11 нет в базе данныхТрек 12 нет в базе данныхТрек 13 нет в базе данныхТрек 14 нет в базе данныхТрек 15 нет в базе данныхТрек 16 нет в базе данныхТрек 17 нет в базе данных

Ни одного трека нет в базе AccurateRip

Конец отчёта


Трекер:  [ 26-Ноя-2012 18:38 ]

  

Скачать .torrent

Размер .torrent файла 12 KB


Размер: 291 MB
Хэш (hash) релиза: 06538ffb4ce4d2a912d12d865b89aa50b0fc184c

Еще никто не оставлял запись к записи скачать торрент The Hotrod Hillbillies - Under The Texes Sky - 2005, APE . Будь первым!

!Обратная связь