Скачать через торрент музыку Elvis Presley - Rocker - 1984, FLAC бесплатно без регистрации torrent

Если у вас наблюдаются проблемы со скриншотами, переходом по ссылками, скачиванием торрентов - проблемы в блокировщике рекламы AdBlock. #хорошегоДня!


Статистика раздачи
Размер:  115 MB   |    Зарегистрирован:  4 года 10 месяцев   |    .torrent скачан:  24 раза   |   
Раздают:  1  
   
Загрузка...
 
Автор Сообщение

Galfimbul

avatar Galfimbul


Elvis Presley / Rocker

Жанр: Rockabilly
Страна-производитель диска: USA
Год издания: 1984
Издатель (лейбл): RCA Records
Номер по каталогу: PCD1-5182
Страна: USA
Аудиокодек: FLAC (*.flac)
Тип рипа: image+.cue
Битрейт аудио: lossless
Продолжительность: 34:59
Источник (релизер): AUDELAS KINGDOM
Наличие сканов в содержимом раздачи: да
01. Jailhouse Rock
02. Blue Suede Shoes
03. Tutti Frutti
04. Lawdy Miss Clawdy
05. I Got A Woman
06. Money Honey
07. Ready Teddy
08. Rip It Up
09. Shake, Rattle & Roll
10. Long Tall Sally
11. (you're So Square) Baby I Don't Care
12. Hound Dog

Exact Audio Copy V1.0 beta 2 from 29. April 2011

EAC extraction logfile from 15. November 2012, 19:08

Elvis Presley / Rocker

Used drive : _NEC DVD_RW ND-3550A Adapter: 1 ID: 0

Read mode : SecureUtilize accurate stream : YesDefeat audio cache : YesMake use of C2 pointers : No

Read offset correction : 48Overread into Lead-In and Lead-Out : NoFill up missing offset samples with silence : YesDelete leading and trailing silent blocks : NoNull samples used in CRC calculations : YesUsed interface : Native Win32 interface for Win NT & 2000

Used output format : User Defined EncoderSelected bitrate : 768 kBit/sQuality : HighAdd ID3 tag : NoCommand line compressor : C:\Program Files\Exact Audio Copy\FLAC\FLAC.EXEAdditional command line options : -6 -V -T "ARTIST=%artist%" -T "TITLE=%title%" -T "ALBUM=%albumtitle%" -T "DATE=%year%" -T "TRACKNUMBER=%tracknr%" -T "GENRE=%genre%" -T "COMMENT=%comment%" -T "BAND=%albuminterpret%" -T "COMPOSER=%composer%" %haslyrics%--ta

TOC of the extracted CD

Track | Start | Length | Start sector | End sector --------------------------------------------------------- 1 | 0:00.37 | 2:26.13 | 37 | 10999 2 | 2:26.50 | 2:00.05 | 11000 | 20004 3 | 4:26.55 | 1:57.32 | 20005 | 28811 4 | 6:24.12 | 2:08.38 | 28812 | 38449 5 | 8:32.50 | 2:24.17 | 38450 | 49266 6 | 10:56.67 | 2:34.45 | 49267 | 60861 7 | 13:31.37 | 1:55.25 | 60862 | 69511 8 | 15:26.62 | 1:53.65 | 69512 | 78051 9 | 17:20.52 | 2:28.23 | 78052 | 89174 10 | 19:49.00 | 1:52.62 | 89175 | 97636 11 | 21:41.62 | 1:53.25 | 97637 | 106136 12 | 23:35.12 | 2:16.20 | 106137 | 116356

Range status and errors

Selected range

Filename D:\Muzika\Elvis Presley - Rocker (1984)\Elvis Presley - Rocker.wav

Peak level 91.1 % Extraction speed 3.9 X Range quality 99.9 % Test CRC B7379330 Copy CRC B7379330 Copy OK

No errors occurred

AccurateRip summary

Track 1 cannot be verified as accurate (confidence 2) [D1EB7CFB], AccurateRip returned [EAD1FA8B] (AR v2)Track 2 cannot be verified as accurate (confidence 2) [D0E7027C], AccurateRip returned [EBCCE317] (AR v2)Track 3 cannot be verified as accurate (confidence 2) [40513FC7], AccurateRip returned [CE3F6939] (AR v2)Track 4 cannot be verified as accurate (confidence 2) [4458A12D], AccurateRip returned [558A77EF] (AR v2)Track 5 cannot be verified as accurate (confidence 2) [0437EEA9], AccurateRip returned [5DA4CFFB] (AR v2)Track 6 cannot be verified as accurate (confidence 2) [ABB15376], AccurateRip returned [F9E9FA3A] (AR v2)Track 7 cannot be verified as accurate (confidence 2) [8F8C7CDA], AccurateRip returned [1353C03E] (AR v2)Track 8 cannot be verified as accurate (confidence 2) [6886FD2D], AccurateRip returned [FFD0C421] (AR v2)Track 9 cannot be verified as accurate (confidence 2) [3BD0A85B], AccurateRip returned [3EFB9E94] (AR v2)Track 10 cannot be verified as accurate (confidence 2) [760EA264], AccurateRip returned [8DA060B1] (AR v2)Track 11 cannot be verified as accurate (confidence 2) [E263CA95], AccurateRip returned [4A974EDB] (AR v2)Track 12 cannot be verified as accurate (confidence 2) [DA2B5645], AccurateRip returned [0F5C556C] (AR v2)

No tracks could be verified as accurateYou may have a different pressing from the one(s) in the database

End of status report

==== Log checksum 8301465B85DFAFEA3594C472B48C059479460F38C65C712B07F1DF44E5265000 ====


Трекер:  [ 26-Ноя-2012 18:38 ]

  

Скачать .torrent

Размер .torrent файла 18 KB


Размер: 115 MB
Хэш (hash) релиза: b91005dc9a4e0c2d3237378f296c39156b7ea1fe

Еще никто не оставлял запись к записи скачать торрент Elvis Presley - Rocker - 1984, FLAC . Будь первым!

!Обратная связь