Скачать через торрент музыку Lee Rocker - Burnin Love - 2004, FLAC бесплатно без регистрации torrent

Если у вас наблюдаются проблемы со скриншотами, переходом по ссылками, скачиванием торрентов - проблемы в блокировщике рекламы AdBlock. #хорошегоДня!


Статистика раздачи
Размер:  474 MB   |    Зарегистрирован:  4 года 8 месяцев   |    .torrent скачан:  28 раз   |   
Раздают:  1  
   
Загрузка...
 
Автор Сообщение

Galfimbul

avatar Galfimbul


Lee Rocker / Burnin' Love

Жанр: Neo Rockabilly
Страна-производитель диска: Deutschland
Год издания: 2004
Издатель (лейбл): Hypertension
Номер по каталогу: HYP 4230
Страна: USA
Аудиокодек: FLAC (*.flac)
Тип рипа: image+.cue
Битрейт аудио: lossless
Продолжительность: 69:00
Источник (релизер): AUDELAS KINGDOM
Наличие сканов в содержимом раздачи: да
01. Burnin' Love
02. Little Piece of Your Love
03. Miracle in Memphis
04. Jimmy, Jimmy
05. Whiskey River
06. Shame, Shame, Shame
07. Shakey Town
08. Darlin Darlene
09. Screaming Hunger
10. Take It Slow
11. Memphis Freeze
12. Goin' Down Hard
13. Movin' On
14. Viva Las Vegas
15. Those Days Are Done
16. Hard Headed Woman
17. Rumblin' Bass
18. That's Allright/Blue Moon of Kentucky/Eastbound and Down
19. Bulletproof
20. Please Don't Touch
21. Blue Suede Nights
22. Rag Mama Rag

Exact Audio Copy V1.0 beta 2 from 29. April 2011

EAC extraction logfile from 15. November 2012, 21:08

Lee Rocker / Burnin' Love

Used drive : _NEC DVD_RW ND-3550A Adapter: 1 ID: 0

Read mode : SecureUtilize accurate stream : YesDefeat audio cache : YesMake use of C2 pointers : No

Read offset correction : 48Overread into Lead-In and Lead-Out : NoFill up missing offset samples with silence : YesDelete leading and trailing silent blocks : NoNull samples used in CRC calculations : YesUsed interface : Native Win32 interface for Win NT & 2000

Used output format : User Defined EncoderSelected bitrate : 768 kBit/sQuality : HighAdd ID3 tag : NoCommand line compressor : C:\Program Files\Exact Audio Copy\FLAC\FLAC.EXEAdditional command line options : -6 -V -T "ARTIST=%artist%" -T "TITLE=%title%" -T "ALBUM=%albumtitle%" -T "DATE=%year%" -T "TRACKNUMBER=%tracknr%" -T "GENRE=%genre%" -T "COMMENT=%comment%" -T "BAND=%albuminterpret%" -T "COMPOSER=%composer%" %haslyrics%--ta

TOC of the extracted CD

Track | Start | Length | Start sector | End sector --------------------------------------------------------- 1 | 0:00.00 | 3:21.07 | 0 | 15081 2 | 3:21.07 | 2:20.58 | 15082 | 25639 3 | 5:41.65 | 3:00.30 | 25640 | 39169 4 | 8:42.20 | 2:50.67 | 39170 | 51986 5 | 11:33.12 | 3:18.49 | 51987 | 66885 6 | 14:51.61 | 3:35.08 | 66886 | 83018 7 | 18:26.69 | 4:14.35 | 83019 | 102103 8 | 22:41.29 | 2:38.47 | 102104 | 114000 9 | 25:20.01 | 3:39.24 | 114001 | 130449 10 | 28:59.25 | 2:52.37 | 130450 | 143386 11 | 31:51.62 | 3:36.01 | 143387 | 159587 12 | 35:27.63 | 2:52.58 | 159588 | 172545 13 | 38:20.46 | 4:35.48 | 172546 | 193218 14 | 42:56.19 | 2:47.21 | 193219 | 205764 15 | 45:43.40 | 3:19.73 | 205765 | 220762 16 | 49:03.38 | 1:56.42 | 220763 | 229504 17 | 51:00.05 | 3:46.42 | 229505 | 246496 18 | 54:46.47 | 4:38.00 | 246497 | 267346 19 | 59:24.47 | 2:15.23 | 267347 | 277494 20 | 61:39.70 | 3:08.12 | 277495 | 291606 21 | 64:48.07 | 2:58.70 | 291607 | 305026 22 | 67:47.02 | 1:13.01 | 305027 | 310502 23 | 71:32.03 | 6:40.12 | 321903 | 351914

Range status and errors

Selected range

Filename D:\Muzika\Lee Rocker - Burnin' Love (2004)\Lee Rocker - Burnin' Love.wav

Peak level 99.2 % Extraction speed 2.2 X Range quality 99.9 % Test CRC ED265672 Copy CRC ED265672 Copy OK

No errors occurred

AccurateRip summary

Track 1 cannot be verified as accurate (confidence 1) [095C88F1], AccurateRip returned [F3122798] (AR v2)Track 2 cannot be verified as accurate (confidence 1) [26B6B20F], AccurateRip returned [54FBFD06] (AR v2)Track 3 cannot be verified as accurate (confidence 1) [CF9E5A96], AccurateRip returned [1FEA1848] (AR v2)Track 4 cannot be verified as accurate (confidence 1) [5D523455], AccurateRip returned [406ABB6A] (AR v2)Track 5 cannot be verified as accurate (confidence 1) [04930544], AccurateRip returned [925C7C61] (AR v2)Track 6 cannot be verified as accurate (confidence 1) [D6153CAD], AccurateRip returned [6D9D6CA3] (AR v2)Track 7 cannot be verified as accurate (confidence 1) [07746D2D], AccurateRip returned [A18794D6] (AR v2)Track 8 cannot be verified as accurate (confidence 1) [1D37B5C0], AccurateRip returned [E8040995] (AR v2)Track 9 cannot be verified as accurate (confidence 1) [7C4CD754], AccurateRip returned [149572DD] (AR v2)Track 10 cannot be verified as accurate (confidence 1) [0E51038D], AccurateRip returned [6939D2B0] (AR v2)Track 11 cannot be verified as accurate (confidence 1) [70997CC7], AccurateRip returned [9CB9904F] (AR v2)Track 12 cannot be verified as accurate (confidence 1) [DDCA8865], AccurateRip returned [BC273CF8] (AR v2)Track 13 cannot be verified as accurate (confidence 1) [64268678], AccurateRip returned [CE1415E8] (AR v2)Track 14 cannot be verified as accurate (confidence 1) [3CADA6DB], AccurateRip returned [BE80ADAD] (AR v2)Track 15 cannot be verified as accurate (confidence 1) [EEDF3583], AccurateRip returned [05240AA2] (AR v2)Track 16 cannot be verified as accurate (confidence 1) [09E0AB96], AccurateRip returned [8B6E1075] (AR v2)Track 17 cannot be verified as accurate (confidence 1) [492C3C1F], AccurateRip returned [DB2FF85A] (AR v2)Track 18 cannot be verified as accurate (confidence 1) [BF29947F], AccurateRip returned [CE021B1A] (AR v2)Track 19 cannot be verified as accurate (confidence 1) [37C5C935], AccurateRip returned [8A9F4F66] (AR v2)Track 20 cannot be verified as accurate (confidence 1) [63CF67E3], AccurateRip returned [C3A2E849] (AR v2)Track 21 cannot be verified as accurate (confidence 1) [83DDC47D], AccurateRip returned [23C8E2DE] (AR v2)Track 22 cannot be verified as accurate (confidence 1) [BE2976E9], AccurateRip returned [6C13B9ED] (AR v2)

No tracks could be verified as accurateYou may have a different pressing from the one(s) in the database

End of status report

==== Log checksum 161336F211F20BD751A1F7660C6ECD122B0F968AF34EE8AB34035B526E3241B4 ====


Трекер:  [ 26-Ноя-2012 18:38 ]

  

Скачать .torrent

Размер .torrent файла 19 KB


Размер: 474 MB
Хэш (hash) релиза: b876bc9168b988f1ab984407dae3f52b78c971a1

Еще никто не оставлял запись к записи скачать торрент Lee Rocker - Burnin Love - 2004, FLAC . Будь первым!

!Обратная связь