Скачать через торрент музыку Don Rader & The Five Stars - 22 Original 50s And 60s Masters From The Detroit - 1995, FLAC бесплатно без регистрации torrent

Если у вас наблюдаются проблемы со скриншотами, переходом по ссылками, скачиванием торрентов - проблемы в блокировщике рекламы AdBlock. #хорошегоДня!


Статистика раздачи
Размер:  269 MB   |    Зарегистрирован:  4 года 11 месяцев   |    .torrent скачан:  8 раз   |   
Раздают:  1  
   
Загрузка...
 
Автор Сообщение

Galfimbul

avatar Galfimbul


Don Rader & The Five Stars / 22 Original 50's And 60's Masters From The Detroit

Жанр: Rockabilly
Страна-производитель диска: Germany
Год издания: 1995
Издатель (лейбл): Gee Dee Music
Номер по каталогу: 270115-2
Страна: USA
Аудиокодек: FLAC (*.flac)
Тип рипа: image+.cue
Битрейт аудио: lossless
Продолжительность: 59:22
Источник (релизер): AUDELAS KINGDOM
Наличие сканов в содержимом раздачи: да
01. Rock 'n' Roll Grandpap
02. Rockin' The Blues
03. I Was A Fool
04. My Baby's Still Rockin'
05. Rockin' The Blues
06. You Win Again
07. Area Code To Heaven
08. Your Cheating Heart
09. Rader's Blues
10. Whole Lotta Shakin' Goin' On
11. Rock 'n' Roll Grandpap (original demo)
12. Hound Dog
13. Don't Be Cruel
14. Loveletters In The Sand
15. You Are My Sunshine
16. Kansas City
17. Shake Rattle And Roll
18. A Day At The Pines
19. A Satesfied Me
20. I'll Be There If You Ever Wan't Me
21. My Bucket's Got A Hole In It
22. Goodbye I Hate To See You Go

Exact Audio Copy V1.0 beta 2 from 29. April 2011

EAC extraction logfile from 17. November 2012, 12:48

Don Rader & The Five Stars / 22 Original 50's And 60's Masters From The Detroit Rock'n'roll Man

Used drive : _NEC DVD_RW ND-3550A Adapter: 1 ID: 0

Read mode : SecureUtilize accurate stream : YesDefeat audio cache : YesMake use of C2 pointers : No

Read offset correction : 48Overread into Lead-In and Lead-Out : NoFill up missing offset samples with silence : YesDelete leading and trailing silent blocks : NoNull samples used in CRC calculations : YesUsed interface : Native Win32 interface for Win NT & 2000

Used output format : User Defined EncoderSelected bitrate : 768 kBit/sQuality : HighAdd ID3 tag : NoCommand line compressor : C:\Program Files\Exact Audio Copy\FLAC\FLAC.EXEAdditional command line options : -6 -V -T "ARTIST=%artist%" -T "TITLE=%title%" -T "ALBUM=%albumtitle%" -T "DATE=%year%" -T "TRACKNUMBER=%tracknr%" -T "GENRE=%genre%" -T "COMMENT=%comment%" -T "BAND=%albuminterpret%" -T "COMPOSER=%composer%" %haslyrics%--ta

TOC of the extracted CD

Track | Start | Length | Start sector | End sector --------------------------------------------------------- 1 | 0:00.00 | 2:12.60 | 0 | 9959 2 | 2:12.60 | 2:36.67 | 9960 | 21726 3 | 4:49.52 | 2:08.58 | 21727 | 31384 4 | 6:58.35 | 1:46.40 | 31385 | 39374 5 | 8:45.00 | 1:50.45 | 39375 | 47669 6 | 10:35.45 | 2:15.47 | 47670 | 57841 7 | 12:51.17 | 3:00.20 | 57842 | 71361 8 | 15:51.37 | 2:54.03 | 71362 | 84414 9 | 18:45.40 | 3:42.32 | 84415 | 101096 10 | 22:27.72 | 1:30.35 | 101097 | 107881 11 | 23:58.32 | 1:41.10 | 107882 | 115466 12 | 25:39.42 | 1:17.58 | 115467 | 121299 13 | 26:57.25 | 2:10.30 | 121300 | 131079 14 | 29:07.55 | 2:43.02 | 131080 | 143306 15 | 31:50.57 | 2:41.00 | 143307 | 155381 16 | 34:31.57 | 2:45.68 | 155382 | 167824 17 | 37:17.50 | 2:00.32 | 167825 | 176856 18 | 39:18.07 | 2:56.63 | 176857 | 190119 19 | 42:14.70 | 2:34.12 | 190120 | 201681 20 | 44:49.07 | 2:19.38 | 201682 | 212144 21 | 47:08.45 | 3:27.62 | 212145 | 227731 22 | 50:36.32 | 1:49.43 | 227732 | 235949

Range status and errors

Selected range

Filename D:\Muzika\Don Rader & The Five Stars - 22 Original 50's And 60's Masters From The Detroit Rock'n'roll Man (1995)\Don Rader & The Five Stars - 22 Original 50's And 60's Masters From The Detroit Rock'n'roll Man.wav

Peak level 100.0 % Extraction speed 1.9 X Range quality 100.0 % Test CRC B873140E Copy CRC B873140E Copy OK

No errors occurred

AccurateRip summary

Track 1 not present in databaseTrack 2 not present in databaseTrack 3 not present in databaseTrack 4 not present in databaseTrack 5 not present in databaseTrack 6 not present in databaseTrack 7 not present in databaseTrack 8 not present in databaseTrack 9 not present in databaseTrack 10 not present in databaseTrack 11 not present in databaseTrack 12 not present in databaseTrack 13 not present in databaseTrack 14 not present in databaseTrack 15 not present in databaseTrack 16 not present in databaseTrack 17 not present in databaseTrack 18 not present in databaseTrack 19 not present in databaseTrack 20 not present in databaseTrack 21 not present in databaseTrack 22 not present in database

None of the tracks are present in the AccurateRip database

End of status report

==== Log checksum E4397727979ED461A9ED15FF7A380AF3DE050116935EE7E3A4FBBB45C591FEC0 ====


Трекер:  [ 26-Ноя-2012 18:39 ]

  

Скачать .torrent

Размер .torrent файла 11 KB


Размер: 269 MB
Хэш (hash) релиза: 2d5ae2b22bec5a27e3ebc4235f0099417906a106

Еще никто не оставлял запись к записи скачать торрент Don Rader & The Five Stars - 22 Original 50s And 60s Masters From The Detroit - 1995, FLAC . Будь первым!

!Обратная связь