Скачать через торрент музыку The Racketeers - Bostons Infamous Rockabilly Racket - 1998, FLAC бесплатно без регистрации torrent

Если у вас наблюдаются проблемы со скриншотами, переходом по ссылками, скачиванием торрентов - проблемы в блокировщике рекламы AdBlock. #хорошегоДня!


Статистика раздачи
Размер:  148 MB   |    Зарегистрирован:  4 года 11 месяцев   |    .torrent скачан:  32 раза   |   
Раздают:  1  
   
Загрузка...
 
Автор Сообщение

Galfimbul

avatar Galfimbul


The Racketeers / Boston's Infamous Rockabilly Racket

Жанр: Neo Rockabilly
Страна-производитель диска: EU
Год издания: 1998
Издатель (лейбл): Scollay Square Music
Номер по каталогу: SCLY SQ. 101
Страна: USA
Аудиокодек: FLAC (*.flac)
Тип рипа: image+.cue
Битрейт аудио: lossless
Продолжительность: 36:00
Источник (релизер): AUDELAS KINGDOM
Наличие сканов в содержимом раздачи: да

01. Out For Kicks
02. Easy On The Slacks
03. Clip Joint Tramp
04. Lost A Little Love
05. Hold Me Tight
06. Two Left Feet
07. Rock Shop Hop
08. Breakdown Lane
09. Jeeze Louise
10. Walk My Baby Home
11. Boston Brinks
Exact Audio Copy V1.0 beta 2 from 29. April 2011

EAC extraction logfile from 20. November 2012, 19:09

The Racketeers / Boston's Infamous Rockabilly Racket

Used drive : _NEC DVD_RW ND-3550A Adapter: 1 ID: 0

Read mode : SecureUtilize accurate stream : YesDefeat audio cache : YesMake use of C2 pointers : No

Read offset correction : 48Overread into Lead-In and Lead-Out : NoFill up missing offset samples with silence : YesDelete leading and trailing silent blocks : NoNull samples used in CRC calculations : YesUsed interface : Native Win32 interface for Win NT & 2000

Used output format : User Defined EncoderSelected bitrate : 768 kBit/sQuality : HighAdd ID3 tag : NoCommand line compressor : C:\Program Files\Exact Audio Copy\FLAC\FLAC.EXEAdditional command line options : -6 -V -T "ARTIST=%artist%" -T "TITLE=%title%" -T "ALBUM=%albumtitle%" -T "DATE=%year%" -T "TRACKNUMBER=%tracknr%" -T "GENRE=%genre%" -T "COMMENT=%comment%" -T "BAND=%albuminterpret%" -T "COMPOSER=%composer%" %haslyrics%--ta

TOC of the extracted CD

Track | Start | Length | Start sector | End sector --------------------------------------------------------- 1 | 0:00.00 | 2:59.15 | 0 | 13439 2 | 2:59.15 | 3:19.22 | 13440 | 28386 3 | 6:18.37 | 2:23.00 | 28387 | 39111 4 | 8:41.37 | 2:40.58 | 39112 | 51169 5 | 11:22.20 | 1:46.70 | 51170 | 59189 6 | 13:09.15 | 2:12.40 | 59190 | 69129 7 | 15:21.55 | 2:31.35 | 69130 | 80489 8 | 17:53.15 | 1:40.20 | 80490 | 88009 9 | 19:33.35 | 1:55.70 | 88010 | 96704 10 | 21:29.30 | 3:13.62 | 96705 | 111241 11 | 24:43.17 | 3:05.71 | 111242 | 125187

Range status and errors

Selected range

Filename D:\Muzika\The Racketeers - Boston's Infamous Rockabilly Racket (1998)\The Racketeers - Boston's Infamous Rockabilly Racket.wav

Peak level 95.1 % Extraction speed 4.1 X Range quality 99.9 % Test CRC AD6F36A8 Copy CRC AD6F36A8 Copy OK

No errors occurred

AccurateRip summary

Track 1 not present in databaseTrack 2 not present in databaseTrack 3 not present in databaseTrack 4 not present in databaseTrack 5 not present in databaseTrack 6 not present in databaseTrack 7 not present in databaseTrack 8 not present in databaseTrack 9 not present in databaseTrack 10 not present in databaseTrack 11 not present in database

None of the tracks are present in the AccurateRip database

End of status report

==== Log checksum B6588624568AA424C2C7BA46AF6DC128FE493B4E02170C239AC5A2641BCDFECC ====


Трекер:  [ 26-Ноя-2012 18:33 ]

  

Скачать .torrent

Размер .torrent файла 12 KB


Размер: 148 MB
Хэш (hash) релиза: 22f5ac5133f81400c9e567bcf8e5622000509e12

Еще никто не оставлял запись к записи скачать торрент The Racketeers - Bostons Infamous Rockabilly Racket - 1998, FLAC . Будь первым!

!Обратная связь