Скачать через торрент музыку Billy Lee Riley - Red Hot бесплатно без регистрации torrent

Если у вас наблюдаются проблемы со скриншотами, переходом по ссылками, скачиванием торрентов - проблемы в блокировщике рекламы AdBlock. #хорошегоДня!


Статистика раздачи
Размер:  203 MB   |    Зарегистрирован:  4 года 10 месяцев   |    .torrent скачан:  7 раз   |   
Раздают:  1  
   
Загрузка...
 
Автор Сообщение

Galfimbul

avatar Galfimbul


Billy Lee Riley / Red Hot

Жанр: Rockabilly
Страна-производитель диска: UK
Год издания: 1996
Издатель (лейбл): Charly
Номер по каталогу: CPCD 8138
Страна: USA
Аудиокодек: FLAC (*.flac)
Тип рипа: image+.cue
Битрейт аудио: lossless
Продолжительность: 59:00
Источник (релизер): AUDELAS KINGDOM
Наличие сканов в содержимом раздачи: да

01. Flyin' Saucers Rock'N'Roll
02. Red Hot
03. Rock With Me Baby
04. Pearly Lee
05. Down By The Riverside
06. I Want You Baby
07. Trouble Bound
08. Wouldn't You Know
09. Baby Please Don't Go
10. That's Right
11. Searchin'
12. College Man
13. Dance With Me, Honey
14. Your Cash Ain't Nothing But Trash
15. Swanee River Rock
16. Betty And Dupree
17. Got The Water Boiling
18. No Name Girl
19. Come Back Baby
20. Let's Talk About Us
21. Folsom Prison Blues
22. Sweet William
23. Saturday Night Fish Fry
24. Dark Muddy Bottom
25. When A Man Gets The Blues
26. Billy's Blues


Доп. информация: http://www.youtube.com/watch?v=UvuDuGfZ5ZU
Exact Audio Copy V1.0 beta 2 from 29. April 2011

EAC extraction logfile from 21. November 2012, 20:06

Billy Lee Riley / Red Hot

Used drive : _NEC DVD_RW ND-3550A Adapter: 1 ID: 0

Read mode : SecureUtilize accurate stream : YesDefeat audio cache : YesMake use of C2 pointers : No

Read offset correction : 48Overread into Lead-In and Lead-Out : NoFill up missing offset samples with silence : YesDelete leading and trailing silent blocks : NoNull samples used in CRC calculations : YesUsed interface : Native Win32 interface for Win NT & 2000

Used output format : User Defined EncoderSelected bitrate : 768 kBit/sQuality : HighAdd ID3 tag : NoCommand line compressor : C:\Program Files\Exact Audio Copy\FLAC\FLAC.EXEAdditional command line options : -6 -V -T "ARTIST=%artist%" -T "TITLE=%title%" -T "ALBUM=%albumtitle%" -T "DATE=%year%" -T "TRACKNUMBER=%tracknr%" -T "GENRE=%genre%" -T "COMMENT=%comment%" -T "BAND=%albuminterpret%" -T "COMPOSER=%composer%" %haslyrics%--ta

TOC of the extracted CD

Track | Start | Length | Start sector | End sector --------------------------------------------------------- 1 | 0:00.00 | 2:05.60 | 0 | 9434 2 | 2:05.60 | 2:33.25 | 9435 | 20934 3 | 4:39.10 | 2:15.07 | 20935 | 31066 4 | 6:54.17 | 2:38.38 | 31067 | 42954 5 | 9:32.55 | 2:17.57 | 42955 | 53286 6 | 11:50.37 | 1:55.60 | 53287 | 61971 7 | 13:46.22 | 2:46.23 | 61972 | 74444 8 | 16:32.45 | 3:16.55 | 74445 | 89199 9 | 19:49.25 | 2:09.37 | 89200 | 98911 10 | 21:58.62 | 2:03.73 | 98912 | 108209 11 | 24:02.60 | 2:36.57 | 108210 | 119966 12 | 26:39.42 | 2:47.65 | 119967 | 132556 13 | 29:27.32 | 2:29.55 | 132557 | 143786 14 | 31:57.12 | 1:01.08 | 143787 | 148369 15 | 32:58.20 | 2:19.40 | 148370 | 158834 16 | 35:17.60 | 2:15.12 | 158835 | 168971 17 | 37:32.72 | 2:10.60 | 168972 | 178781 18 | 39:43.57 | 1:55.08 | 178782 | 187414 19 | 41:38.65 | 2:16.40 | 187415 | 197654 20 | 43:55.30 | 2:32.60 | 197655 | 209114 21 | 46:28.15 | 0:42.12 | 209115 | 212276 22 | 47:10.27 | 1:57.55 | 212277 | 221106 23 | 49:08.07 | 1:37.20 | 221107 | 228401 24 | 50:45.27 | 2:26.70 | 228402 | 239421 25 | 53:12.22 | 3:38.68 | 239422 | 255839 26 | 56:51.15 | 1:32.50 | 255840 | 262789

Range status and errors

Selected range

Filename D:\Muzika\Billy Lee Riley - Red Hot (1996)\Billy Lee Riley - Red Hot.wav

Peak level 90.4 % Extraction speed 2.0 X Range quality 100.0 % Test CRC 9F3F7EA6 Copy CRC 9F3F7EA6 Copy OK

No errors occurred

AccurateRip summary

Track 1 not present in databaseTrack 2 not present in databaseTrack 3 not present in databaseTrack 4 not present in databaseTrack 5 not present in databaseTrack 6 not present in databaseTrack 7 not present in databaseTrack 8 not present in databaseTrack 9 not present in databaseTrack 10 not present in databaseTrack 11 not present in databaseTrack 12 not present in databaseTrack 13 not present in databaseTrack 14 not present in databaseTrack 15 not present in databaseTrack 16 not present in databaseTrack 17 not present in databaseTrack 18 not present in databaseTrack 19 not present in databaseTrack 20 not present in databaseTrack 21 not present in databaseTrack 22 not present in databaseTrack 23 not present in databaseTrack 24 not present in databaseTrack 25 not present in databaseTrack 26 not present in database

None of the tracks are present in the AccurateRip database

End of status report

==== Log checksum 41447704E6BD2AB17D2858D92D6E3B43FD414D4984457DCBC511173915918D60 ====


Трекер:  [ 26-Ноя-2012 18:33 ]

  

Скачать .torrent

Размер .torrent файла 17 KB


Размер: 203 MB
Хэш (hash) релиза: 31a65fb0072369448e7625dfd7c7ad10447810df

Еще никто не оставлял запись к записи скачать торрент Billy Lee Riley - Red Hot . Будь первым!

!Обратная связь