Скачать через торрент музыку Charlie Rich - Super Hits - 200 бесплатно без регистрации torrent

Если у вас наблюдаются проблемы со скриншотами, переходом по ссылками, скачиванием торрентов - проблемы в блокировщике рекламы AdBlock. #хорошегоДня!


Статистика раздачи
Размер:  218 MB   |    Зарегистрирован:  4 года 8 месяцев   |    .torrent скачан:  10 раз   |   
Раздают:  1  
   
Загрузка...
 
Автор Сообщение

Galfimbul

avatar Galfimbul


Charlie Rich / Super Hits

Страна исполнителя: US
Жанр: Rockabilly, Rock'n'Roll
Страна-производитель диска: USA
Год издания: 2007 (1995)
Издатель (лейбл): Sony BMG Music Entertaiment
Номер по каталогу: A 705462

Аудиокодек: FLAC (*.flac)
Тип рипа: image+.cue
Битрейт аудио: lossless
Продолжительность: 30:54
Источник (релизер): Собственный рип
Наличие сканов в содержимом раздачи: да

Треклист:

1. Behind Closed Doors (2:57)
2. On My Knees [Previously Released Material] (3:13)
3. The Most Beautiful Girl (2:45)
4. Life's Little Ups And Downs [Previously Released Material] (3:40)
5. A Woman Left Lonely (3:17)
6. Set Me Free [Previously Released Material] (2:37)
7. A Very Special Love Song (2:45)
8. Spanish Eyes (2:54)
9. My Elusive Dreams (3:57)
10.Pieces Of My Life [Previously Released Material] (2:49)
Exact Audio Copy V1.0 beta 1 from 15. November 2010

EAC extraction logfile from 21. November 2012, 20:49

Charlie Rich / Super Hits

Used drive : Optiarc DVD RW AD-7263S Adapter: 3 ID: 0

Read mode : SecureUtilize accurate stream : YesDefeat audio cache : YesMake use of C2 pointers : No

Read offset correction : 48Overread into Lead-In and Lead-Out : NoFill up missing offset samples with silence : YesDelete leading and trailing silent blocks : NoNull samples used in CRC calculations : YesUsed interface : Native Win32 interface for Win NT & 2000

Used output format : User Defined EncoderSelected bitrate : 32 kBit/sQuality : HighAdd ID3 tag : NoCommand line compressor : C:\Program Files\Exact Audio Copy\Flac\flac.exeAdditional command line options : -T "DATE=%y" -T "GENRE=%m" -8 -V %s

TOC of the extracted CD

Track | Start | Length | Start sector | End sector --------------------------------------------------------- 1 | 0:00.00 | 2:57.00 | 0 | 13274 2 | 2:57.00 | 3:13.67 | 13275 | 27816 3 | 6:10.67 | 2:45.58 | 27817 | 40249 4 | 8:56.50 | 3:40.00 | 40250 | 56749 5 | 12:36.50 | 3:17.70 | 56750 | 71594 6 | 15:54.45 | 2:37.72 | 71595 | 83441 7 | 18:32.42 | 2:45.73 | 83442 | 95889 8 | 21:18.40 | 2:54.67 | 95890 | 109006 9 | 24:13.32 | 3:57.18 | 109007 | 126799 10 | 28:10.50 | 2:49.55 | 126800 | 139529

Range status and errors

Selected range

Filename C:\Documents and Settings\maxim\Мои документы\Моя музыка\Charlie Rich - Super Hits.wav

Peak level 100.0 % Extraction speed 0.3 X Range quality 100.0 % Test CRC A46F556E Copy CRC A46F556E Copy OK

No errors occurred

AccurateRip summary

Track 1 cannot be verified as accurate (confidence 5) [3565CA3F], AccurateRip returned [5153F4FD]Track 2 cannot be verified as accurate (confidence 5) [EAEB62A2], AccurateRip returned [2EB2ACD1]Track 3 cannot be verified as accurate (confidence 5) [8875F17C], AccurateRip returned [D545D108]Track 4 cannot be verified as accurate (confidence 5) [4770F3D3], AccurateRip returned [E2BBF284]Track 5 cannot be verified as accurate (confidence 5) [4DE7E9DE], AccurateRip returned [67AB9C89]Track 6 cannot be verified as accurate (confidence 6) [711666EC], AccurateRip returned [88A3096F]Track 7 cannot be verified as accurate (confidence 5) [CBD5D31A], AccurateRip returned [9D6B67BF]Track 8 cannot be verified as accurate (confidence 6) [791F3915], AccurateRip returned [4D4EAD85]Track 9 cannot be verified as accurate (confidence 4) [F13D65D4], AccurateRip returned [597F7885]Track 10 cannot be verified as accurate (confidence 5) [D5E85EA7], AccurateRip returned [BFFC87B5]

No tracks could be verified as accurateYou may have a different pressing from the one(s) in the database

End of status report

==== Log checksum 6E0EE3FD627FB5EEDD486BE02A2B93BC6C3FB3509B2F5D657CF4561A216DCEC9 ====


Трекер:  [ 26-Ноя-2012 18:33 ]

  

Скачать .torrent

Размер .torrent файла 18 KB


Размер: 218 MB
Хэш (hash) релиза: b978af1a91a4cc1178fcd721ff9a569578655708

Еще никто не оставлял запись к записи скачать торрент Charlie Rich - Super Hits - 200 . Будь первым!

!Обратная связь