Скачать через торрент музыку Shadowy Men On A Shadowy Planet - 3 Albums: Savvy Show Stoppers бесплатно без регистрации torrent

Если у вас наблюдаются проблемы со скриншотами, переходом по ссылками, скачиванием торрентов - проблемы в блокировщике рекламы AdBlock. #хорошегоДня!


Статистика раздачи
Размер:  1.09 GB   |    Зарегистрирован:  4 года 11 месяцев   |    .torrent скачан:  25 раз   |   
Раздают:  1  
   
Загрузка...
 
Автор Сообщение

Galfimbul

avatar Galfimbul


Shadowy Men On A Shadowy Planet – 3 Albums



Жанр: Surf Rock
Год издания: 1990-1993
Издатель (лейбл): Cargo Records
Страна исполнителя: Canada
Аудиокодек: FLAC (*.flac)
Тип рипа: image+.cue
Битрейт аудио: lossless
Продолжительность: 36:26 / 42:00 / 49:52
Rip by flac jacket
Наличие сканов в содержимом раздачи: да
Год издания: 1990
Номер по каталогу: CAR 009
Продолжительность: 36:26

Треклист:
01. Good Cop Bad Cop (2:31)
02. Musical Interlude (1:08)
03. Theme From T.V. (1:26)
04. Zombie Compromise (2:11)
05. Malfunction (0:28)
06. Shake Some Evil (2:50)
07. You Spin Me Round '86 (2:08)
08. Run Chicken Run (1:40)
09. Bennett Cerf (1:36)
10. Egypt Texas (2:29)
11. Customized (2:22)
12. Our Weapons Are Useless (2:32)
13. Shadowy Countdown (0:47)
14. Harlem By The Sea (1:54)
15. Having An Average Weekend (3:58)
16. Misty (1:15)
17. Summer Wind (2:10)
18. Big Baby (3:01)
Exact Audio Copy V1.0 beta 2 from 29. April 2011

EAC extraction logfile from 30. August 2012, 13:21

Shadowy Men On A Shadowy Planet / Savvy Show Stoppers

Used drive : HL-DT-STDVDRAM GH60N Adapter: 0 ID: 1

Read mode : SecureUtilize accurate stream : YesDefeat audio cache : YesMake use of C2 pointers : No

Read offset correction : 667Overread into Lead-In and Lead-Out : NoFill up missing offset samples with silence : YesDelete leading and trailing silent blocks : NoNull samples used in CRC calculations : YesUsed interface : Native Win32 interface for Win NT & 2000

Used output format : User Defined EncoderSelected bitrate : 1024 kBit/sQuality : HighAdd ID3 tag : NoCommand line compressor : C:\Program Files (x86)\Exact Audio Copy\Flac\flac.exeAdditional command line options : -V -8 -T "artist=%albumartist%" -T "title=%title%" -T "album=%albumtitle%" -T "date=%year%" -T "genre=%genre%" -T "tracknumber=%tracknr%" %source%

TOC of the extracted CD

Track | Start | Length | Start sector | End sector --------------------------------------------------------- 1 | 0:00.00 | 2:30.65 | 0 | 11314 2 | 2:30.65 | 1:08.10 | 11315 | 16424 3 | 3:39.00 | 1:25.47 | 16425 | 22846 4 | 5:04.47 | 2:11.08 | 22847 | 32679 5 | 7:15.55 | 0:28.27 | 32680 | 34806 6 | 7:44.07 | 2:49.50 | 34807 | 47531 7 | 10:33.57 | 2:08.03 | 47532 | 57134 8 | 12:41.60 | 1:39.55 | 57135 | 64614 9 | 14:21.40 | 1:35.67 | 64615 | 71806 10 | 15:57.32 | 2:29.25 | 71807 | 83006 11 | 18:26.57 | 2:21.58 | 83007 | 93639 12 | 20:48.40 | 2:31.62 | 93640 | 105026 13 | 23:20.27 | 0:47.08 | 105027 | 108559 14 | 24:07.35 | 1:53.65 | 108560 | 117099 15 | 26:01.25 | 3:58.15 | 117100 | 134964 16 | 29:59.40 | 1:15.12 | 134965 | 140601 17 | 31:14.52 | 2:09.70 | 140602 | 150346 18 | 33:24.47 | 3:01.35 | 150347 | 163956

Range status and errors

Selected range

Filename C:\EAC\Shadowy Men On A Shadowy Planet - (1990) Savvy Show Stoppers\Shadowy Men On A Shadowy Planet - Savvy Show Stoppers.wav

Peak level 99.2 % Extraction speed 1.9 X Range quality 100.0 % Test CRC FDFB2304 Copy CRC FDFB2304 Copy OK

No errors occurred

AccurateRip summary

Track 1 accurately ripped (confidence 6) [9019A931] (AR v1)Track 2 accurately ripped (confidence 6) [6BB01E44] (AR v1)Track 3 accurately ripped (confidence 6) [0E4C7A99] (AR v1)Track 4 accurately ripped (confidence 6) [9D0A80E0] (AR v1)Track 5 accurately ripped (confidence 6) [6EAB0F05] (AR v1)Track 6 accurately ripped (confidence 6) [39DE9A7A] (AR v1)Track 7 accurately ripped (confidence 6) [4D5EAFD1] (AR v1)Track 8 accurately ripped (confidence 6) [51991D3C] (AR v1)Track 9 accurately ripped (confidence 6) [63B5FD0D] (AR v1)Track 10 accurately ripped (confidence 6) [08D5816B] (AR v1)Track 11 accurately ripped (confidence 6) [92D9CDBB] (AR v1)Track 12 accurately ripped (confidence 6) [62CF32B0] (AR v1)Track 13 accurately ripped (confidence 6) [49651D27] (AR v1)Track 14 accurately ripped (confidence 6) [F891D5C9] (AR v1)Track 15 accurately ripped (confidence 6) [C5A92297] (AR v1)Track 16 accurately ripped (confidence 6) [3DF87EA2] (AR v1)Track 17 accurately ripped (confidence 6) [AC847A40] (AR v1)Track 18 accurately ripped (confidence 6) [6657DBD6] (AR v1)

All tracks accurately ripped

End of status report

==== Log checksum 979F3C4AF389B97FE86A3FAFDA9FF5214B9796AA39AE023CDC245C8ABC18D484 ====
Год издания: 1991
Номер по каталогу: CAR 014
Продолжительность: 42:00

Треклист:
01. Dim The Lights, Chill The Ham (0:50)
02. Reids Situation (1:18)
03. I Know A Guy Named Larry (1:19)
04. Exit From Vince Lombardi High School (1:30)
05. Aunts Invasion (1:52)
06. Running Meredith (2:11)
07. Bang Bang (2:00)
08. Hot Box Car (1:33)
09. In My Room (2:14)
10. Dewy Drops Of Spring (0:22)
11. 5 American 6 Canadian (1:26)
12. Who Painted Whistlers Mother (2:16)
13. Case Of The Missing Lady Fingers (2:02)
14. Jackpot (2:01)
15. D. Tour (1:54)
16. Hunter S. Thompson's Younger Brother (1:54)
17. Misogomye The Object (2:12)
18. Ben Hur Picked Off In A Gazebo (0:55)
19. Whos Afraid Of Alyson Hymer/Wow Flutter Hiss (3:25)
20. You Spin Me Round '86 (1:57)
21. Babakganoosh (1:53)
22. Siesta Cinema (2:51)
23. Dim The Lights, Chill The Ham Reprise (0:48)
24. Unnamed One (0:52)
25. Unnamed Two (0:26)
Exact Audio Copy V1.0 beta 2 from 29. April 2011

EAC extraction logfile from 30. August 2012, 15:14

Shadowy Men On A Shadowy Planet / Dim The Lights, Chill The Ham

Used drive : HL-DT-STDVDRAM GH60N Adapter: 0 ID: 1

Read mode : SecureUtilize accurate stream : YesDefeat audio cache : YesMake use of C2 pointers : No

Read offset correction : 667Overread into Lead-In and Lead-Out : NoFill up missing offset samples with silence : YesDelete leading and trailing silent blocks : NoNull samples used in CRC calculations : YesUsed interface : Native Win32 interface for Win NT & 2000

Used output format : User Defined EncoderSelected bitrate : 1024 kBit/sQuality : HighAdd ID3 tag : NoCommand line compressor : C:\Program Files (x86)\Exact Audio Copy\Flac\flac.exeAdditional command line options : -V -8 -T "artist=%albumartist%" -T "title=%title%" -T "album=%albumtitle%" -T "date=%year%" -T "genre=%genre%" -T "tracknumber=%tracknr%" %source%

TOC of the extracted CD

Track | Start | Length | Start sector | End sector --------------------------------------------------------- 1 | 0:00.00 | 0:50.10 | 0 | 3759 2 | 0:50.10 | 1:17.67 | 3760 | 9601 3 | 2:08.02 | 1:19.00 | 9602 | 15526 4 | 3:27.02 | 1:30.08 | 15527 | 22284 5 | 4:57.10 | 1:51.55 | 22285 | 30664 6 | 6:48.65 | 2:11.30 | 30665 | 40519 7 | 9:00.20 | 1:59.50 | 40520 | 49494 8 | 10:59.70 | 1:32.65 | 49495 | 56459 9 | 12:32.60 | 2:13.57 | 56460 | 66491 10 | 14:46.42 | 0:21.55 | 66492 | 68121 11 | 15:08.22 | 1:26.10 | 68122 | 74581 12 | 16:34.32 | 2:16.28 | 74582 | 84809 13 | 18:50.60 | 2:02.27 | 84810 | 93986 14 | 20:53.12 | 2:01.18 | 93987 | 103079 15 | 22:54.30 | 1:53.60 | 103080 | 111614 16 | 24:48.15 | 1:54.15 | 111615 | 120179 17 | 26:42.30 | 2:12.07 | 120180 | 130086 18 | 28:54.37 | 0:54.43 | 130087 | 134179 19 | 29:49.05 | 3:24.65 | 134180 | 149544 20 | 33:13.70 | 1:56.45 | 149545 | 158289 21 | 35:10.40 | 1:52.65 | 158290 | 166754 22 | 37:03.30 | 2:50.72 | 166755 | 179576 23 | 39:54.27 | 0:48.25 | 179577 | 183201 24 | 40:42.52 | 0:51.50 | 183202 | 187076 25 | 41:34.27 | 0:26.03 | 187077 | 189029

Range status and errors

Selected range

Filename C:\EAC\Shadowy Men On A Shadowy Planet - (1991) Dim The Lights, Chill The Ham\Shadowy Men On A Shadowy Planet - Dim The Lights, Chill The Ham.wav

Peak level 94.8 % Extraction speed 1.9 X Range quality 100.0 % Test CRC 18D65A05 Copy CRC 18D65A05 Copy OK

No errors occurred

AccurateRip summary

Track 1 accurately ripped (confidence 3) [884D36F0] (AR v1)Track 2 accurately ripped (confidence 3) [88D8C4A5] (AR v1)Track 3 accurately ripped (confidence 3) [EAE6B312] (AR v1)Track 4 accurately ripped (confidence 3) [1244BFCE] (AR v1)Track 5 accurately ripped (confidence 3) [B1C5FA18] (AR v1)Track 6 accurately ripped (confidence 3) [27680507] (AR v1)Track 7 accurately ripped (confidence 3) [2DDC1BA4] (AR v1)Track 8 accurately ripped (confidence 3) [7BDF9E54] (AR v1)Track 9 accurately ripped (confidence 3) [CD5A7AB8] (AR v1)Track 10 accurately ripped (confidence 3) [926DED26] (AR v1)Track 11 accurately ripped (confidence 3) [40456861] (AR v1)Track 12 accurately ripped (confidence 3) [365102E3] (AR v1)Track 13 accurately ripped (confidence 3) [49C97574] (AR v1)Track 14 accurately ripped (confidence 3) [126AC752] (AR v1)Track 15 accurately ripped (confidence 3) [4B95BAE9] (AR v1)Track 16 accurately ripped (confidence 3) [2197EF2F] (AR v1)Track 17 accurately ripped (confidence 3) [3A2B53E2] (AR v1)Track 18 accurately ripped (confidence 3) [1E58DD48] (AR v1)Track 19 accurately ripped (confidence 3) [7246D67D] (AR v1)Track 20 accurately ripped (confidence 3) [A50E59DB] (AR v1)Track 21 accurately ripped (confidence 3) [20CB082C] (AR v1)Track 22 accurately ripped (confidence 3) [53F3E7C6] (AR v1)Track 23 accurately ripped (confidence 3) [C9916D4E] (AR v1)Track 24 accurately ripped (confidence 3) [C2845CDE] (AR v1)Track 25 accurately ripped (confidence 3) [BD30F046] (AR v1)

All tracks accurately ripped

End of status report

==== Log checksum E22FD9BFB48F3E30950D68FA79C690757FF7B0CC80596FB043A6C3FA84ED882E ====
Год издания: 1993
Номер по каталогу: CAR 017
Продолжительность: 49:52

Треклист:
01. Unwatchable (0:11)
02. Spend A Night, Not A Fortune (0:45)
03. Three Piece Suit (2:22)
04. Fortune Tellin' Chicken (1:32)
05. (Relax) You Will Think You Are A Chicken (2:58)
06. Plastics For 500, Bob (1:45)
07. That Wuz Ear Me Callin' A Horse (2:53)
08. The Singing Cowboy (1:22)
09. Farbs (2:52)
10. Spy School Graduation Theme (2:33)
11. Cheese In The Fridge (4:03)
12. Unwatchable (2) (0:12)
13. (Untitled) (1:56)
14. Haig Earl (1:03)
15. Algoma Reflections (2:57)
16. We're Not A Fucking Surf Band (0:27)
17. Peas Porridge Rock (1:27)
18. Honey, You're Wasting Ammo (3:39)
19. They Don't Call Them Chihuahas Anymore (2:26)
20. Off Our Back Conrad Black (1:10)
21. We'll Be Right Back! (1:20)
22. What I Like About Grease (2:16)
23. Memories Of Gay Paree (1:48)
24. Babywetsitself (5:53)
Exact Audio Copy V1.0 beta 2 from 29. April 2011

EAC extraction logfile from 30. August 2012, 17:12

Shadowy Men On A Shadowy Planet / Sport Fishin': The Lure Of The Bait, The Luck Of The Hook

Used drive : HL-DT-STDVDRAM GH60N Adapter: 0 ID: 1

Read mode : SecureUtilize accurate stream : YesDefeat audio cache : YesMake use of C2 pointers : No

Read offset correction : 667Overread into Lead-In and Lead-Out : NoFill up missing offset samples with silence : YesDelete leading and trailing silent blocks : NoNull samples used in CRC calculations : YesUsed interface : Native Win32 interface for Win NT & 2000

Used output format : User Defined EncoderSelected bitrate : 1024 kBit/sQuality : HighAdd ID3 tag : NoCommand line compressor : C:\Program Files (x86)\Exact Audio Copy\Flac\flac.exeAdditional command line options : -V -8 -T "artist=%albumartist%" -T "title=%title%" -T "album=%albumtitle%" -T "date=%year%" -T "genre=%genre%" -T "tracknumber=%tracknr%" %source%

TOC of the extracted CD

Track | Start | Length | Start sector | End sector --------------------------------------------------------- 1 | 0:00.00 | 0:11.07 | 0 | 831 2 | 0:11.07 | 0:44.60 | 832 | 4191 3 | 0:55.67 | 2:22.18 | 4192 | 14859 4 | 3:18.10 | 1:32.35 | 14860 | 21794 5 | 4:50.45 | 2:57.67 | 21795 | 35136 6 | 7:48.37 | 1:45.20 | 35137 | 43031 7 | 9:33.57 | 2:53.10 | 43032 | 56016 8 | 12:26.67 | 1:21.68 | 56017 | 62159 9 | 13:48.60 | 2:52.25 | 62160 | 75084 10 | 16:41.10 | 2:33.37 | 75085 | 86596 11 | 19:14.47 | 4:02.40 | 86597 | 104786 12 | 23:17.12 | 0:12.10 | 104787 | 105696 13 | 23:29.22 | 1:55.40 | 105697 | 114361 14 | 25:24.62 | 1:02.73 | 114362 | 119084 15 | 26:27.60 | 2:56.62 | 119085 | 132346 16 | 29:24.47 | 0:27.25 | 132347 | 134396 17 | 29:51.72 | 1:27.28 | 134397 | 140949 18 | 31:19.25 | 3:39.20 | 140950 | 157394 19 | 34:58.45 | 2:25.72 | 157395 | 168341 20 | 37:24.42 | 1:10.05 | 168342 | 173596 21 | 38:34.47 | 1:20.15 | 173597 | 179611 22 | 39:54.62 | 2:15.53 | 179612 | 189789 23 | 42:10.40 | 1:47.70 | 189790 | 197884 24 | 43:58.35 | 5:53.12 | 197885 | 224371

Range status and errors

Selected range

Filename C:\EAC\Shadowy Men On A Shadowy Planet - (1993) Sport Fishin'- The Lure Of The Bait, The Luck Of The Hook\Shadowy Men On A Shadowy Planet - Sport Fishin'- The Lure Of The Bait, The Luck Of The Hook.wav

Peak level 100.0 % Extraction speed 2.0 X Range quality 100.0 % Test CRC 370BB285 Copy CRC 370BB285 Copy OK

No errors occurred

AccurateRip summary

Track 1 accurately ripped (confidence 2) [7225BD4D] (AR v1)Track 2 accurately ripped (confidence 2) [9FD378E8] (AR v1)Track 3 accurately ripped (confidence 2) [3FF46EB2] (AR v1)Track 4 accurately ripped (confidence 2) [3C6E0DE6] (AR v1)Track 5 accurately ripped (confidence 2) [DAEB0B4A] (AR v1)Track 6 accurately ripped (confidence 2) [D64ECA49] (AR v1)Track 7 accurately ripped (confidence 2) [CAFDD99C] (AR v1)Track 8 accurately ripped (confidence 2) [79370093] (AR v1)Track 9 accurately ripped (confidence 2) [B9A81781] (AR v1)Track 10 accurately ripped (confidence 2) [EB827D53] (AR v1)Track 11 accurately ripped (confidence 2) [687C11E2] (AR v1)Track 12 accurately ripped (confidence 2) [BD9AAAB0] (AR v1)Track 13 accurately ripped (confidence 2) [3A2696D1] (AR v1)Track 14 accurately ripped (confidence 2) [DADF3685] (AR v1)Track 15 accurately ripped (confidence 2) [5F97FEEE] (AR v1)Track 16 accurately ripped (confidence 2) [02A325B2] (AR v1)Track 17 accurately ripped (confidence 2) [C9626A90] (AR v1)Track 18 accurately ripped (confidence 2) [99BF5C46] (AR v1)Track 19 accurately ripped (confidence 2) [0B2348D5] (AR v1)Track 20 accurately ripped (confidence 2) [71A87A39] (AR v1)Track 21 accurately ripped (confidence 2) [3DCAC8F9] (AR v1)Track 22 accurately ripped (confidence 2) [0521C52F] (AR v1)Track 23 accurately ripped (confidence 2) [06FD594A] (AR v1)Track 24 accurately ripped (confidence 2) [9C56A3CC] (AR v1)

All tracks accurately ripped

End of status report

==== Log checksum 53A0BB687C40615DC3BEF09725F3CF1259A43F9D98267FE01BD06184DB1789A9 ====


Трекер:  [ 26-Ноя-2012 18:34 ]

  

Скачать .torrent

Размер .torrent файла 26 KB


Размер: 1.09 GB
Хэш (hash) релиза: 26e4d38700e2aefbf69770711b06879543d3b729

Еще никто не оставлял запись к записи скачать торрент Shadowy Men On A Shadowy Planet - 3 Albums: Savvy Show Stoppers . Будь первым!

!Обратная связь