Скачать через торрент музыку Red Hot Max And Cats - Cuckoo Clock Rock - 1989, FLAC бесплатно без регистрации torrent

Если у вас наблюдаются проблемы со скриншотами, переходом по ссылками, скачиванием торрентов - проблемы в блокировщике рекламы AdBlock. #хорошегоДня!


Статистика раздачи
Размер:  231 MB   |    Зарегистрирован:  4 года 11 месяцев   |    .torrent скачан:  22 раза   |   
Раздают:  1  
   
Загрузка...
 
Автор Сообщение

Galfimbul

avatar Galfimbul


Red Hot Max And Cats / Cuckoo Clock Rock

Жанр: Rock'n'Roll
Страна-производитель диска: Sverige
Год издания: 1989
Издатель (лейбл): Eagle Records
Номер по каталогу: ECD 032
Страна: Sverige
Аудиокодек: FLAC (*.flac)
Тип рипа: image+.cue
Битрейт аудио: lossless
Продолжительность: 41:00
Источник (релизер): AUDELAS KINGDOM
Наличие сканов в содержимом раздачи: да
01. Bring My Cadillac Back
02. Well, Now Dig This
03. Equator
04. Mamas Little Baby
05. Bim Bim
06. Cast Iron Arm
07. You Gotta Be Loose
08. Cuckoo Clock Rock
09. Stop
10. Birth Of Boogie
11. School Of Rock & Roll
12. Jitterbop Baby
13. Spirit Of Woodstock
14. The Saints Rock & Roll
Exact Audio Copy V1.0 beta 2 from 29. April 2011

EAC extraction logfile from 23. November 2012, 18:54

Red Hot Max And Cats / Cuckoo Clock Rock

Used drive : _NEC DVD_RW ND-3550A Adapter: 1 ID: 0

Read mode : SecureUtilize accurate stream : YesDefeat audio cache : YesMake use of C2 pointers : No

Read offset correction : 48Overread into Lead-In and Lead-Out : NoFill up missing offset samples with silence : YesDelete leading and trailing silent blocks : NoNull samples used in CRC calculations : YesUsed interface : Native Win32 interface for Win NT & 2000

Used output format : User Defined EncoderSelected bitrate : 768 kBit/sQuality : HighAdd ID3 tag : NoCommand line compressor : C:\Program Files\Exact Audio Copy\FLAC\FLAC.EXEAdditional command line options : -6 -V -T "ARTIST=%artist%" -T "TITLE=%title%" -T "ALBUM=%albumtitle%" -T "DATE=%year%" -T "TRACKNUMBER=%tracknr%" -T "GENRE=%genre%" -T "COMMENT=%comment%" -T "BAND=%albuminterpret%" -T "COMPOSER=%composer%" %haslyrics%--ta

TOC of the extracted CD

Track | Start | Length | Start sector | End sector --------------------------------------------------------- 1 | 0:00.00 | 2:37.32 | 0 | 11806 2 | 2:37.32 | 2:44.23 | 11807 | 24129 3 | 5:21.55 | 3:16.57 | 24130 | 38886 4 | 8:38.37 | 2:47.55 | 38887 | 51466 5 | 11:26.17 | 3:04.10 | 51467 | 65276 6 | 14:30.27 | 3:16.53 | 65277 | 80029 7 | 17:47.05 | 1:48.65 | 80030 | 88194 8 | 19:35.70 | 2:29.72 | 88195 | 99441 9 | 22:05.67 | 3:16.08 | 99442 | 114149 10 | 25:22.00 | 2:36.62 | 114150 | 125911 11 | 27:58.62 | 1:53.60 | 125912 | 134446 12 | 29:52.47 | 1:47.38 | 134447 | 142509 13 | 31:40.10 | 3:37.15 | 142510 | 158799 14 | 35:17.25 | 3:16.00 | 158800 | 173499

Range status and errors

Selected range

Filename D:\Muzika\Red Hot Max And Cats - Cuckoo Clock Rock (1989)\Red Hot Max And Cats - Cuckoo Clock Rock.wav

Peak level 87.9 % Extraction speed 4.4 X Range quality 100.0 % Test CRC 4865D705 Copy CRC 4865D705 Copy OK

No errors occurred

AccurateRip summary

Track 1 not present in databaseTrack 2 not present in databaseTrack 3 not present in databaseTrack 4 not present in databaseTrack 5 not present in databaseTrack 6 not present in databaseTrack 7 not present in databaseTrack 8 not present in databaseTrack 9 not present in databaseTrack 10 not present in databaseTrack 11 not present in databaseTrack 12 not present in databaseTrack 13 not present in databaseTrack 14 not present in database

None of the tracks are present in the AccurateRip database

End of status report

==== Log checksum 356F2FAF3B72370DE4840789B2B6491440D479855B5F8BC6481E5858AB85BEA2 ====


Трекер:  [ 26-Ноя-2012 18:34 ]

  

Скачать .torrent

Размер .torrent файла 19 KB


Размер: 231 MB
Хэш (hash) релиза: 64375d27dbe75c910d37afbe73f9b9fad143ca23

Еще никто не оставлял запись к записи скачать торрент Red Hot Max And Cats - Cuckoo Clock Rock - 1989, FLAC . Будь первым!

!Обратная связь