Скачать через торрент музыку Rockin Rebels - Rockin Rebels - 1979, FLAC бесплатно без регистрации torrent

Если у вас наблюдаются проблемы со скриншотами, переходом по ссылками, скачиванием торрентов - проблемы в блокировщике рекламы AdBlock. #хорошегоДня!


Статистика раздачи
Размер:  217 MB   |    Зарегистрирован:  4 года 10 месяцев   |    .torrent скачан:  20 раз   |   
Раздают:  1  
   
Загрузка...
 
Автор Сообщение

Galfimbul

avatar Galfimbul


Rockin' Rebels / Rockin' Rebels

Жанр: Rock'n'Roll
Страна-производитель диска: France
Год издания: 1979
Издатель (лейбл): Melodie Distribution
Номер по каталогу: 62244-2
Страна: France
Аудиокодек: FLAC (*.flac)
Тип рипа: image+.cue
Битрейт аудио: lossless
Продолжительность: 39:09
Источник (релизер): AUDELAS KINGDOM
Наличие сканов в содержимом раздачи: да

01. Dynamite
02. Train Hits The Track
03. My Girl Janis
04. Hot Jive
05. Rebels Special
06. One Hand Loose
07. Last Run From The Law
08. Wild Red Boogie
09. Leopard Skin Jacket
10. Leapin' Guitar
11. Hound Bush
12. Put Your Cat Clothes On
13. Gonna Rock Tonite
Exact Audio Copy V1.0 beta 2 from 29. April 2011

EAC extraction logfile from 24. November 2012, 7:41

Rockin' Rebels / Rockin' Rebels

Used drive : _NEC DVD_RW ND-3550A Adapter: 1 ID: 0

Read mode : SecureUtilize accurate stream : YesDefeat audio cache : YesMake use of C2 pointers : No

Read offset correction : 48Overread into Lead-In and Lead-Out : NoFill up missing offset samples with silence : YesDelete leading and trailing silent blocks : NoNull samples used in CRC calculations : YesUsed interface : Native Win32 interface for Win NT & 2000

Used output format : User Defined EncoderSelected bitrate : 768 kBit/sQuality : HighAdd ID3 tag : NoCommand line compressor : C:\Program Files\Exact Audio Copy\FLAC\FLAC.EXEAdditional command line options : -6 -V -T "ARTIST=%artist%" -T "TITLE=%title%" -T "ALBUM=%albumtitle%" -T "DATE=%year%" -T "TRACKNUMBER=%tracknr%" -T "GENRE=%genre%" -T "COMMENT=%comment%" -T "BAND=%albuminterpret%" -T "COMPOSER=%composer%" %haslyrics%--ta

TOC of the extracted CD

Track | Start | Length | Start sector | End sector --------------------------------------------------------- 1 | 0:00.32 | 2:47.20 | 32 | 12576 2 | 2:47.52 | 2:20.50 | 12577 | 23126 3 | 5:08.27 | 2:16.18 | 23127 | 33344 4 | 7:24.45 | 2:19.27 | 33345 | 43796 5 | 9:43.72 | 2:25.18 | 43797 | 54689 6 | 12:09.15 | 2:28.02 | 54690 | 65791 7 | 14:37.17 | 2:43.60 | 65792 | 78076 8 | 17:21.02 | 2:41.40 | 78077 | 90191 9 | 20:02.42 | 3:08.15 | 90192 | 104306 10 | 23:10.57 | 1:41.08 | 104307 | 111889 11 | 24:51.65 | 2:28.25 | 111890 | 123014 12 | 27:20.15 | 2:34.10 | 123015 | 134574 13 | 29:54.25 | 4:39.07 | 134575 | 155506

Range status and errors

Selected range

Filename D:\Muzika\Rockin' Rebels - Rockin' Rebels (1979)\Rockin' Rebels - Rockin' Rebels.wav

Peak level 95.2 % Extraction speed 1.6 X Range quality 99.9 % Test CRC B5079320 Copy CRC B5079320 Copy OK

No errors occurred

AccurateRip summary

Track 1 not present in databaseTrack 2 not present in databaseTrack 3 not present in databaseTrack 4 not present in databaseTrack 5 not present in databaseTrack 6 not present in databaseTrack 7 not present in databaseTrack 8 not present in databaseTrack 9 not present in databaseTrack 10 not present in databaseTrack 11 not present in databaseTrack 12 not present in databaseTrack 13 not present in database

None of the tracks are present in the AccurateRip database

End of status report

==== Log checksum BE1B9D4CAA29642D2415A8B76E51E42F19C04DFE9684238640A5838334819F04 ====


Трекер:  [ 26-Ноя-2012 18:34 ]

  

Скачать .torrent

Размер .torrent файла 17 KB


Размер: 217 MB
Хэш (hash) релиза: ed477d3591116ada9230719fc53d62e91660c24a

Еще никто не оставлял запись к записи скачать торрент Rockin Rebels - Rockin Rebels - 1979, FLAC . Будь первым!

!Обратная связь