Скачать через торрент музыку The Playboys - Easy Rockin - 1997, FLAC бесплатно без регистрации torrent

Если у вас наблюдаются проблемы со скриншотами, переходом по ссылками, скачиванием торрентов - проблемы в блокировщике рекламы AdBlock. #хорошегоДня!


Статистика раздачи
Размер:  258 MB   |    Зарегистрирован:  4 года 10 месяцев   |    .torrent скачан:  8 раз   |   
Раздают:  1  
   
Загрузка...
 
Автор Сообщение

Galfimbul

avatar Galfimbul


The Playboys / Easy Rockin'

Жанр: Rock'n'Roll
Страна-производитель диска: England
Год издания: 1997
Издатель (лейбл): Vinyl Japan
Номер по каталогу: JRCD26
Страна: England
Аудиокодек: FLAC (*.flac)
Тип рипа: image+.cue
Битрейт аудио: lossless
Продолжительность: 41:13
Источник (релизер): AUDELAS KINGDOM
Наличие сканов в содержимом раздачи: да

01. Shake Your Hips
02. Little Miss Pancake
03. Baby Treat me Right
04. Ritchie's Rumba
05. Rakin' 'N' Scrapin'
06. 24 Hour Girl
07. She Sure Can Rock me
08. Revenge
09. Easy Rockin'
10. Dizzy Miss Lizzy
11. Don't Start Cryin' Now
12. Caldonia
13. Get On The Right Track
14. Rock-A-Bye Baby Blues
Exact Audio Copy V1.0 beta 2 from 29. April 2011

EAC extraction logfile from 24. November 2012, 8:55

The Playboys / Easy Rockin'

Used drive : _NEC DVD_RW ND-3550A Adapter: 1 ID: 0

Read mode : SecureUtilize accurate stream : YesDefeat audio cache : YesMake use of C2 pointers : No

Read offset correction : 48Overread into Lead-In and Lead-Out : NoFill up missing offset samples with silence : YesDelete leading and trailing silent blocks : NoNull samples used in CRC calculations : YesUsed interface : Native Win32 interface for Win NT & 2000

Used output format : User Defined EncoderSelected bitrate : 768 kBit/sQuality : HighAdd ID3 tag : NoCommand line compressor : C:\Program Files\Exact Audio Copy\FLAC\FLAC.EXEAdditional command line options : -6 -V -T "ARTIST=%artist%" -T "TITLE=%title%" -T "ALBUM=%albumtitle%" -T "DATE=%year%" -T "TRACKNUMBER=%tracknr%" -T "GENRE=%genre%" -T "COMMENT=%comment%" -T "BAND=%albuminterpret%" -T "COMPOSER=%composer%" %haslyrics%--ta

TOC of the extracted CD

Track | Start | Length | Start sector | End sector --------------------------------------------------------- 1 | 0:00.32 | 4:38.60 | 32 | 20941 2 | 4:39.17 | 2:42.63 | 20942 | 33154 3 | 7:22.05 | 2:59.57 | 33155 | 46636 4 | 10:21.62 | 3:13.08 | 46637 | 61119 5 | 13:34.70 | 2:43.57 | 61120 | 73401 6 | 16:18.52 | 3:40.40 | 73402 | 89941 7 | 19:59.17 | 1:57.58 | 89942 | 98774 8 | 21:57.00 | 3:03.30 | 98775 | 112529 9 | 25:00.30 | 2:41.47 | 112530 | 124651 10 | 27:42.02 | 3:05.10 | 124652 | 138536 11 | 30:47.12 | 2:45.35 | 138537 | 150946 12 | 33:32.47 | 3:06.28 | 150947 | 164924 13 | 36:39.00 | 2:30.07 | 164925 | 176181 14 | 39:09.07 | 2:03.68 | 176182 | 185474

Range status and errors

Selected range

Filename D:\Muzika\The Playboys - Easy Rockin' (1997)\The Playboys - Easy Rockin'.wav

Peak level 99.6 % Extraction speed 4.5 X Range quality 100.0 % Test CRC 92B89C0E Copy CRC 92B89C0E Copy OK

No errors occurred

AccurateRip summary

Track 1 accurately ripped (confidence 1) [C3D32189] (AR v2)Track 2 accurately ripped (confidence 1) [9F615452] (AR v2)Track 3 accurately ripped (confidence 1) [9927A95A] (AR v2)Track 4 accurately ripped (confidence 1) [0AF3B42B] (AR v2)Track 5 accurately ripped (confidence 1) [CF23E1B0] (AR v2)Track 6 accurately ripped (confidence 1) [E11E3115] (AR v2)Track 7 accurately ripped (confidence 1) [09237FE6] (AR v2)Track 8 accurately ripped (confidence 1) [7A458928] (AR v2)Track 9 accurately ripped (confidence 1) [A621BB17] (AR v2)Track 10 accurately ripped (confidence 1) [D48FBDD5] (AR v2)Track 11 accurately ripped (confidence 1) [B8A03394] (AR v2)Track 12 accurately ripped (confidence 1) [98739F75] (AR v2)Track 13 accurately ripped (confidence 1) [1D260FCF] (AR v2)Track 14 accurately ripped (confidence 1) [C75F067C] (AR v2)

All tracks accurately ripped

End of status report

==== Log checksum A7AEAC2F92D9A273FB403BA7A23AB0E23BEC397A85474BBE866FCFF51895E35F ====


Трекер:  [ 26-Ноя-2012 18:34 ]

  

Скачать .torrent

Размер .torrent файла 11 KB


Размер: 258 MB
Хэш (hash) релиза: 893a6c97a21b0e5c543e155f6a9b4f302e88c662

Еще никто не оставлял запись к записи скачать торрент The Playboys - Easy Rockin - 1997, FLAC . Будь первым!

!Обратная связь