Скачать через торрент музыку The Rockats - The Good The Bad The Rockin - 1997, FLAC бесплатно без регистрации torrent

Если у вас наблюдаются проблемы со скриншотами, переходом по ссылками, скачиванием торрентов - проблемы в блокировщике рекламы AdBlock. #хорошегоДня!


Статистика раздачи
Размер:  201 MB   |    Зарегистрирован:  4 года 8 месяцев   |    .torrent скачан:  15 раз   |   
Раздают:  1  
   
Загрузка...
 
Автор Сообщение

Galfimbul

avatar Galfimbul


The Rockats / The Good The Bad The Rockin'

Жанр: Neo Rockabilly
Страна-производитель диска: England
Год издания: 1997
Издатель (лейбл): Fury Records
Номер по каталогу: DAGCD6
Страна: USA
Аудиокодек: FLAC (*.flac)
Тип рипа: image+.cue
Битрейт аудио: lossless
Продолжительность: 39:43
Источник (релизер): AUDELAS KINGDOM
Наличие сканов в содержимом раздачи: да

01. Doghouse
02. Pink & Black Cadillac
03. Good, The Bad the Rockin'
04. Say You're Mine
05. Tattooe'd Lady
06. Rolling Like a Wheel
07. Some Cat's Got It
08. Love You Anyway
09. Off Your Rocker
10. Too Bad, She's Bad
11. She Ain't My Gal
Exact Audio Copy V1.0 beta 2 from 29. April 2011

EAC extraction logfile from 24. November 2012, 10:03

The Rockats / The Good The Bad The Rockin'

Used drive : _NEC DVD_RW ND-3550A Adapter: 1 ID: 0

Read mode : SecureUtilize accurate stream : YesDefeat audio cache : YesMake use of C2 pointers : No

Read offset correction : 48Overread into Lead-In and Lead-Out : NoFill up missing offset samples with silence : YesDelete leading and trailing silent blocks : NoNull samples used in CRC calculations : YesUsed interface : Native Win32 interface for Win NT & 2000

Used output format : User Defined EncoderSelected bitrate : 768 kBit/sQuality : HighAdd ID3 tag : NoCommand line compressor : C:\Program Files\Exact Audio Copy\FLAC\FLAC.EXEAdditional command line options : -6 -V -T "ARTIST=%artist%" -T "TITLE=%title%" -T "ALBUM=%albumtitle%" -T "DATE=%year%" -T "TRACKNUMBER=%tracknr%" -T "GENRE=%genre%" -T "COMMENT=%comment%" -T "BAND=%albuminterpret%" -T "COMPOSER=%composer%" %haslyrics%--ta

TOC of the extracted CD

Track | Start | Length | Start sector | End sector --------------------------------------------------------- 1 | 0:00.00 | 2:31.02 | 0 | 11326 2 | 2:31.02 | 2:40.58 | 11327 | 23384 3 | 5:11.60 | 2:33.32 | 23385 | 34891 4 | 7:45.17 | 3:12.13 | 34892 | 49304 5 | 10:57.30 | 2:03.45 | 49305 | 58574 6 | 13:01.00 | 2:38.00 | 58575 | 70424 7 | 15:39.00 | 3:29.57 | 70425 | 86156 8 | 19:08.57 | 3:08.48 | 86157 | 100304 9 | 22:17.30 | 2:30.20 | 100305 | 111574 10 | 24:47.50 | 3:42.00 | 111575 | 128224 11 | 28:29.50 | 2:06.37 | 128225 | 137711

Range status and errors

Selected range

Filename D:\Muzika\The Rockats - The Good The Bad The Rockin' (1997)\The Rockats - The Good The Bad The Rockin'.wav

Peak level 100.0 % Extraction speed 1.7 X Range quality 100.0 % Test CRC 8AB27D36 Copy CRC 8AB27D36 Copy OK

No errors occurred

AccurateRip summary

Track 1 not present in databaseTrack 2 not present in databaseTrack 3 not present in databaseTrack 4 not present in databaseTrack 5 not present in databaseTrack 6 not present in databaseTrack 7 not present in databaseTrack 8 not present in databaseTrack 9 not present in databaseTrack 10 not present in databaseTrack 11 not present in database

None of the tracks are present in the AccurateRip database

End of status report

==== Log checksum 3E6D0C53CB5AA6CFBE17E3A4C17DEA72325F3F21E0EB0B6F4867A815DF4BCE7E ====


Трекер:  [ 26-Ноя-2012 18:34 ]

  

Скачать .torrent

Размер .torrent файла 16 KB


Размер: 201 MB
Хэш (hash) релиза: 92cab85a3d549fd8b8679dbb138c6e6a982b76a1

Еще никто не оставлял запись к записи скачать торрент The Rockats - The Good The Bad The Rockin - 1997, FLAC . Будь первым!

!Обратная связь