Скачать через торрент музыку The Rockabeats - Born to Rock - 1997, FLAC бесплатно без регистрации torrent

Если у вас наблюдаются проблемы со скриншотами, переходом по ссылками, скачиванием торрентов - проблемы в блокировщике рекламы AdBlock. #хорошегоДня!


Статистика раздачи
Размер:  147 MB   |    Зарегистрирован:  4 года 11 месяцев   |    .torrent скачан:  8 раз   |   
Раздают:  1  
   
Загрузка...
 
Автор Сообщение

Galfimbul

avatar Galfimbul


The Rockabeats / Born to Rock

Жанр: Neo Rockabilly
Страна-производитель диска: England
Год издания: 1997
Издатель (лейбл): Pollytone Records
Номер по каталогу: PEPCD122
Страна: England
Аудиокодек: FLAC (*.flac)
Тип рипа: image+.cue
Битрейт аудио: lossless
Продолжительность: 47:14
Источник (релизер): AUDELAS KINGDOM
Наличие сканов в содержимом раздачи: да

01. Born to Rock
02. The House of Blue Lights
03. Skinny Jim
04. I'm Real Bad
05. Worrying Kind
06. Sexy and Seventeen
07. Teenage Cutie
08. Please Mama Please
09. Little Pig
10. Yum Yum
11. Kansas City
12. One Hand Loose
13. I've Gotta a Crush
14. Three Alleycats
15. Crazy Legs
16. Shim Sham Shimmy
17. Blackberry Boogie
18. Sexy Kitty
19. Dig the Boogie
20. Everybody Knows
21. Spoken Word by Dick Richards
Exact Audio Copy V1.0 beta 2 from 29. April 2011

EAC extraction logfile from 24. November 2012, 20:02

The Rockabeats / Born to Rock

Used drive : _NEC DVD_RW ND-3550A Adapter: 1 ID: 0

Read mode : SecureUtilize accurate stream : YesDefeat audio cache : YesMake use of C2 pointers : No

Read offset correction : 48Overread into Lead-In and Lead-Out : NoFill up missing offset samples with silence : YesDelete leading and trailing silent blocks : NoNull samples used in CRC calculations : YesUsed interface : Native Win32 interface for Win NT & 2000

Used output format : User Defined EncoderSelected bitrate : 768 kBit/sQuality : HighAdd ID3 tag : NoCommand line compressor : C:\Program Files\Exact Audio Copy\FLAC\FLAC.EXEAdditional command line options : -6 -V -T "ARTIST=%artist%" -T "TITLE=%title%" -T "ALBUM=%albumtitle%" -T "DATE=%year%" -T "TRACKNUMBER=%tracknr%" -T "GENRE=%genre%" -T "COMMENT=%comment%" -T "BAND=%albuminterpret%" -T "COMPOSER=%composer%" %haslyrics%--ta

TOC of the extracted CD

Track | Start | Length | Start sector | End sector --------------------------------------------------------- 1 | 0:00.00 | 2:22.60 | 0 | 10709 2 | 2:22.60 | 2:16.05 | 10710 | 20914 3 | 4:38.65 | 2:03.52 | 20915 | 30191 4 | 6:42.42 | 2:04.00 | 30192 | 39491 5 | 8:46.42 | 2:17.35 | 39492 | 49801 6 | 11:04.02 | 3:09.58 | 49802 | 64034 7 | 14:13.60 | 1:42.05 | 64035 | 71689 8 | 15:55.65 | 3:15.02 | 71690 | 86316 9 | 19:10.67 | 2:28.18 | 86317 | 97434 10 | 21:39.10 | 1:52.62 | 97435 | 105896 11 | 23:31.72 | 2:44.65 | 105897 | 118261 12 | 26:16.62 | 2:00.65 | 118262 | 127326 13 | 28:17.52 | 1:36.70 | 127327 | 134596 14 | 29:54.47 | 2:19.15 | 134597 | 145036 15 | 32:13.62 | 2:09.18 | 145037 | 154729 16 | 34:23.05 | 2:35.00 | 154730 | 166354 17 | 36:58.05 | 2:25.67 | 166355 | 177296 18 | 39:23.72 | 2:37.40 | 177297 | 189111 19 | 42:01.37 | 1:51.63 | 189112 | 197499 20 | 43:53.25 | 2:06.25 | 197500 | 206974 21 | 45:59.50 | 1:43.55 | 206975 | 214754

Range status and errors

Selected range

Filename D:\Muzika\The Rockabeats - Born to Rock (1997)\The Rockabeats - Born to Rock.wav

Peak level 96.7 % Extraction speed 1.9 X Range quality 100.0 % Test CRC 341BCF18 Copy CRC 341BCF18 Copy OK

No errors occurred

AccurateRip summary

Track 1 not present in databaseTrack 2 not present in databaseTrack 3 not present in databaseTrack 4 not present in databaseTrack 5 not present in databaseTrack 6 not present in databaseTrack 7 not present in databaseTrack 8 not present in databaseTrack 9 not present in databaseTrack 10 not present in databaseTrack 11 not present in databaseTrack 12 not present in databaseTrack 13 not present in databaseTrack 14 not present in databaseTrack 15 not present in databaseTrack 16 not present in databaseTrack 17 not present in databaseTrack 18 not present in databaseTrack 19 not present in databaseTrack 20 not present in databaseTrack 21 not present in database

None of the tracks are present in the AccurateRip database

End of status report

==== Log checksum 3BBB6083D20ACD6FE07F60D74D4E191BE3055F10B666F3F24BBEB9CD69328396 ====


Трекер:  [ 26-Ноя-2012 18:34 ]

  

Скачать .torrent

Размер .torrent файла 12 KB


Размер: 147 MB
Хэш (hash) релиза: 3861ae9902e455c436e51426fdd148a58bb2a71a

Еще никто не оставлял запись к записи скачать торрент The Rockabeats - Born to Rock - 1997, FLAC . Будь первым!

!Обратная связь