Скачать через торрент музыку The Raging Teens - The Raging Teens - 1998, FLAC бесплатно без регистрации torrent

Если у вас наблюдаются проблемы со скриншотами, переходом по ссылками, скачиванием торрентов - проблемы в блокировщике рекламы AdBlock. #хорошегоДня!


Статистика раздачи
Размер:  141 MB   |    Зарегистрирован:  4 года 11 месяцев   |    .torrent скачан:  16 раз   |   
Раздают:  1  
   
Загрузка...
 
Автор Сообщение

Galfimbul

avatar Galfimbul


The Raging Teens / The Raging Teens

Жанр: Neo Rockabilly
Страна-производитель диска: EU
Год издания: 1998
Издатель (лейбл): Annabelle Records
Номер по каталогу: 101
Страна: USA
Аудиокодек: FLAC (*.flac)
Тип рипа: image+.cue
Битрейт аудио: lossless
Продолжительность: 36:22
Источник (релизер): AUDELAS KINGDOM
Наличие сканов в содержимом раздачи: да
01. That's How I Like It
02. Grandpaw
03. Roving Eyes
04. Ain't Worth The Time
05. Beantown Bop
06. Hot Rod Shotgun Boogie #2
07. Move Move Move
08. Cry
09. Bebop Boogie
10. Can't Have You
11. C J Boogie
Exact Audio Copy V1.0 beta 2 from 29. April 2011

EAC extraction logfile from 25. November 2012, 10:29

The Raging Teens / The Raging Teens

Used drive : _NEC DVD_RW ND-3550A Adapter: 1 ID: 0

Read mode : SecureUtilize accurate stream : YesDefeat audio cache : YesMake use of C2 pointers : No

Read offset correction : 48Overread into Lead-In and Lead-Out : NoFill up missing offset samples with silence : YesDelete leading and trailing silent blocks : NoNull samples used in CRC calculations : YesUsed interface : Native Win32 interface for Win NT & 2000

Used output format : User Defined EncoderSelected bitrate : 768 kBit/sQuality : HighAdd ID3 tag : NoCommand line compressor : C:\Program Files\Exact Audio Copy\FLAC\FLAC.EXEAdditional command line options : -6 -V -T "ARTIST=%artist%" -T "TITLE=%title%" -T "ALBUM=%albumtitle%" -T "DATE=%year%" -T "TRACKNUMBER=%tracknr%" -T "GENRE=%genre%" -T "COMMENT=%comment%" -T "BAND=%albuminterpret%" -T "COMPOSER=%composer%" %haslyrics%--ta

TOC of the extracted CD

Track | Start | Length | Start sector | End sector --------------------------------------------------------- 1 | 0:00.00 | 2:18.44 | 0 | 10393 2 | 2:18.44 | 2:20.22 | 10394 | 20915 3 | 4:38.66 | 1:48.45 | 20916 | 29060 4 | 6:27.36 | 2:04.07 | 29061 | 38367 5 | 8:31.43 | 2:03.43 | 38368 | 47635 6 | 10:35.11 | 2:15.54 | 47636 | 57814 7 | 12:50.65 | 2:41.46 | 57815 | 69935 8 | 15:32.36 | 2:14.29 | 69936 | 80014 9 | 17:46.65 | 1:47.31 | 80015 | 88070 10 | 19:34.21 | 2:32.02 | 88071 | 99472 11 | 22:06.23 | 1:33.38 | 99473 | 106485

Range status and errors

Selected range

Filename D:\Muzika\The Raging Teens - The Raging Teens (1998)\The Raging Teens - The Raging Teens.wav

Peak level 100.0 % Extraction speed 3.9 X Range quality 100.0 % Test CRC 63AC528B Copy CRC 63AC528B Copy OK

No errors occurred

AccurateRip summary

Track 1 not present in databaseTrack 2 not present in databaseTrack 3 not present in databaseTrack 4 not present in databaseTrack 5 not present in databaseTrack 6 not present in databaseTrack 7 not present in databaseTrack 8 not present in databaseTrack 9 not present in databaseTrack 10 not present in databaseTrack 11 not present in database

None of the tracks are present in the AccurateRip database

End of status report

==== Log checksum D0651D4B4F1A073CF3D9D3FA87C935C0B3BA194417F2C553B5F343E7D7C5B678 ====


Трекер:  [ 26-Ноя-2012 18:34 ]

  

Скачать .torrent

Размер .torrent файла 11 KB


Размер: 141 MB
Хэш (hash) релиза: 636db00c69afeb7717617a3375eb9b69d627a880

Еще никто не оставлял запись к записи скачать торрент The Raging Teens - The Raging Teens - 1998, FLAC . Будь первым!

!Обратная связь