Скачать через торрент музыку The Red Shots - Play That Boogie Again - 2001, FLAC бесплатно без регистрации torrent

Если у вас наблюдаются проблемы со скриншотами, переходом по ссылками, скачиванием торрентов - проблемы в блокировщике рекламы AdBlock. #хорошегоДня!


Статистика раздачи
Размер:  473 MB   |    Зарегистрирован:  4 года 8 месяцев   |    .torrent скачан:  13 раз   |   
Раздают:  1  
   
Загрузка...
 
Автор Сообщение

Galfimbul

avatar Galfimbul


The Red Shots / Play That Boogie Again

Жанр: Neo Rockabilly
Страна-производитель диска: Holland
Год издания: 2001
Издатель (лейбл): Rarity Records
Номер по каталогу: C192645
Страна: Holland
Аудиокодек: FLAC (*.flac)
Тип рипа: image+.cue
Битрейт аудио: lossless
Продолжительность: 77:22
Источник (релизер): AUDELAS KINGDOM
Наличие сканов в содержимом раздачи: да
01. Play My Boogie
02. Go Go Go
03. Fourty Miles
04. Shake Your Pots And Pans
05. Mama Don't Allow
06. Rockin' Mobile
07. Saturday Night
08. Boogie Woogie Feeling
09. Everybody's Trying To Be My Baby
10. My Baby Loves Me
11. How Come You Do Me
12. Lonesome Train
13. Put It In The Oven
14. Country Jam
15. Flying Saucers Rock 'n' Roll
16. Cats Are Jumpin' To Town
17. Red Shot Boogie
18. Love My Baby
19. Bop-A-Lena
20. Get Ready
21. Real Wild Child
22. Come On Baby
23. Drunken Man Blues
24. Jungle Rock
25. Rockabilly Music & The Western Blues
26. Sleep Rock 'n' Roll Rock-A-Baby
27. Red Hot
28. Lonesome Train #2
29. Pink & Black
30. Honey Bun
31. Break Up
Exact Audio Copy V1.0 beta 2 from 29. April 2011

EAC extraction logfile from 25. November 2012, 12:06

The Red Shots / Play That Boogie Again

Used drive : _NEC DVD_RW ND-3550A Adapter: 1 ID: 0

Read mode : SecureUtilize accurate stream : YesDefeat audio cache : YesMake use of C2 pointers : No

Read offset correction : 48Overread into Lead-In and Lead-Out : NoFill up missing offset samples with silence : YesDelete leading and trailing silent blocks : NoNull samples used in CRC calculations : YesUsed interface : Native Win32 interface for Win NT & 2000

Used output format : User Defined EncoderSelected bitrate : 768 kBit/sQuality : HighAdd ID3 tag : NoCommand line compressor : C:\Program Files\Exact Audio Copy\FLAC\FLAC.EXEAdditional command line options : -6 -V -T "ARTIST=%artist%" -T "TITLE=%title%" -T "ALBUM=%albumtitle%" -T "DATE=%year%" -T "TRACKNUMBER=%tracknr%" -T "GENRE=%genre%" -T "COMMENT=%comment%" -T "BAND=%albuminterpret%" -T "COMPOSER=%composer%" %haslyrics%--ta

TOC of the extracted CD

Track | Start | Length | Start sector | End sector --------------------------------------------------------- 1 | 0:00.00 | 1:53.35 | 0 | 8509 2 | 1:53.35 | 1:55.20 | 8510 | 17154 3 | 3:48.55 | 1:52.10 | 17155 | 25564 4 | 5:40.65 | 2:29.30 | 25565 | 36769 5 | 8:10.20 | 2:29.67 | 36770 | 48011 6 | 10:40.12 | 2:08.08 | 48012 | 57619 7 | 12:48.20 | 1:35.70 | 57620 | 64814 8 | 14:24.15 | 2:00.02 | 64815 | 73816 9 | 16:24.17 | 1:32.15 | 73817 | 80731 10 | 17:56.32 | 2:32.28 | 80732 | 92159 11 | 20:28.60 | 1:51.37 | 92160 | 100521 12 | 22:20.22 | 1:59.73 | 100522 | 109519 13 | 24:20.20 | 1:48.47 | 109520 | 117666 14 | 26:08.67 | 1:58.38 | 117667 | 126554 15 | 28:07.30 | 2:20.55 | 126555 | 137109 16 | 30:28.10 | 2:50.00 | 137110 | 149859 17 | 33:18.10 | 3:10.20 | 149860 | 164129 18 | 36:28.30 | 2:23.27 | 164130 | 174881 19 | 38:51.57 | 2:05.58 | 174882 | 184314 20 | 40:57.40 | 2:04.20 | 184315 | 193634 21 | 43:01.60 | 2:22.37 | 193635 | 204321 22 | 45:24.22 | 2:45.38 | 204322 | 216734 23 | 48:09.60 | 2:54.12 | 216735 | 229796 24 | 51:03.72 | 2:17.23 | 229797 | 240094 25 | 53:21.20 | 2:48.15 | 240095 | 252709 26 | 56:09.35 | 2:30.02 | 252710 | 263961 27 | 58:39.37 | 2:22.30 | 263962 | 274641 28 | 61:01.67 | 1:52.33 | 274642 | 283074 29 | 62:54.25 | 1:43.12 | 283075 | 290811 30 | 64:37.37 | 2:12.33 | 290812 | 300744 31 | 66:49.70 | 1:48.37 | 300745 | 308881

Range status and errors

Selected range

Filename D:\Muzika\The Red Shots - Play That Boogie Again (2001)\The Red Shots - Play That Boogie Again.wav

Peak level 99.9 % Extraction speed 2.1 X Range quality 99.9 % Test CRC 85BF7257 Copy CRC 85BF7257 Copy OK

No errors occurred

AccurateRip summary

Track 1 not present in databaseTrack 2 not present in databaseTrack 3 not present in databaseTrack 4 not present in databaseTrack 5 not present in databaseTrack 6 not present in databaseTrack 7 not present in databaseTrack 8 not present in databaseTrack 9 not present in databaseTrack 10 not present in databaseTrack 11 not present in databaseTrack 12 not present in databaseTrack 13 not present in databaseTrack 14 not present in databaseTrack 15 not present in databaseTrack 16 not present in databaseTrack 17 not present in databaseTrack 18 not present in databaseTrack 19 not present in databaseTrack 20 not present in databaseTrack 21 not present in databaseTrack 22 not present in databaseTrack 23 not present in databaseTrack 24 not present in databaseTrack 25 not present in databaseTrack 26 not present in databaseTrack 27 not present in databaseTrack 28 not present in databaseTrack 29 not present in databaseTrack 30 not present in databaseTrack 31 not present in database

None of the tracks are present in the AccurateRip database

End of status report

==== Log checksum 266AF909CEFB9E3270A5FE2CB6B798478ED674F43F0D17CCF64BE25B010604E1 ====


Трекер:  [ 26-Ноя-2012 18:34 ]

  

Скачать .torrent

Размер .torrent файла 19 KB


Размер: 473 MB
Хэш (hash) релиза: 9f79c61b47817354c83dffbc50355fb21b4fba63

Еще никто не оставлял запись к записи скачать торрент The Red Shots - Play That Boogie Again - 2001, FLAC . Будь первым!

!Обратная связь