Скачать через торрент музыку Gorky Park - Дискография бесплатно без регистрации torrent

Если у вас наблюдаются проблемы со скриншотами, переходом по ссылками, скачиванием торрентов - проблемы в блокировщике рекламы AdBlock. #хорошегоДня!


Статистика раздачи
Размер:  2.4 GB   |    Зарегистрирован:  5 лет   |    .torrent скачан:  84 раза   |   
Раздают:  1   Качают:  1  
   
Загрузка...
 
Автор Сообщение

Galfimbul

avatar Galfimbul


Gorky Park - Дискография (1989 - 2002)
Жанр: Rock, Hard Rock
Происхождение исполнителя: Russia
Год издания данного носителя: 1989 - 2002
Страна-производитель носителя: Russia
Тип релиза: tracks+.cue,image+.cue
Аудио кодек: FLAC,WAVPack
Битрейт аудио: lossless
Продолжительность: разная
Полиграфия: присутствует

Альбомы


01 - Bang (4:52)
02 - Try To Find Me (5:13)
03 - Hit Me With The News (3:55)
04 - Sometimes At Night (5:11)
05 - Peace In Our Time (5:59)
06 - My Generation (4:47)
07 - Within Your Eyes (4:58)
08 - Child Of The Wind (5:28)
09 - Fortress (4:08)
10 - Danger (3:33)
11 - Action (3:56)

Duration: 52:00
   
EAC extraction logfile from 11. January 2010, 21:36 for CD
Gorky Park / Gorky Park [PPD-1068]

Used drive : ASUS DRW-2014S1 Adapter: 0 ID: 0
Read mode : Secure with NO C2, accurate stream, disable cache
Read offset correction : 6
Overread into Lead-In and Lead-Out : No

Used output format : Internal WAV Routines
44.100 Hz; 16 Bit; Stereo

Other options :
Fill up missing offset samples with silence : Yes
Delete leading and trailing silent blocks : No
Installed external ASPI interface

Range status and errors
Selected range
Filename Y:\Музыка\Gorky Park\1989 Gorky Park\Gorky Park - Gorky Park [PPD-1068].wav

Peak level 100.0 %
Range quality 100.0 %
CRC CD0B52D2
Copy OK

No errors occured

End of status report
REM GENRE Hard Rock   
REM DATE 1989
PERFORMER "Gorky Park"
TITLE "Gorky Park"
FILE "01 - Bang.flac" WAVE
TRACK 01 AUDIO
TITLE "Bang"
PERFORMER "Gorky Park"
INDEX 01 00:00:00
FILE "02 - Try To Find Me.flac" WAVE
TRACK 02 AUDIO
TITLE "Try To Find Me"
PERFORMER "Gorky Park"
INDEX 01 00:00:00
FILE "03 - Hit Me With The News.flac" WAVE
TRACK 03 AUDIO
TITLE "Hit Me With The News"
PERFORMER "Gorky Park"
INDEX 01 00:00:00
FILE "04 - Sometimes At Night.flac" WAVE
TRACK 04 AUDIO
TITLE "Sometimes At Night"
PERFORMER "Gorky Park"
INDEX 01 00:00:00
FILE "05 - Peace In Our Time.flac" WAVE
TRACK 05 AUDIO
TITLE "Peace In Our Time"
PERFORMER "Gorky Park"
INDEX 01 00:00:00
FILE "06 - My Generation.flac" WAVE
TRACK 06 AUDIO
TITLE "My Generation"
PERFORMER "Gorky Park"
INDEX 01 00:00:00
FILE "07 - Within Your Eyes.flac" WAVE
TRACK 07 AUDIO
TITLE "Within Your Eyes"
PERFORMER "Gorky Park"
INDEX 01 00:00:00
FILE "08 - Child Of The Wind.flac" WAVE
TRACK 08 AUDIO
TITLE "Child Of The Wind"
PERFORMER "Gorky Park"
INDEX 01 00:00:00
FILE "09 - Fortress.flac" WAVE
TRACK 09 AUDIO
TITLE "Fortress"
PERFORMER "Gorky Park"
INDEX 01 00:00:00
FILE "10 - Danger.flac" WAVE
TRACK 10 AUDIO
TITLE "Danger"
PERFORMER "Gorky Park"
INDEX 01 00:00:00
FILE "11 - Action.flac" WAVE
TRACK 11 AUDIO
TITLE "Action"
PERFORMER "Gorky Park"
INDEX 01 00:00:00


01 - Moscow Calling (5:10)
02 - All Roads (5:12)
03 - Politics Of Love (4:06)
04 - Tomorrow (5:56)
05 - Stranger (4:51)
06 - Volga Boatman (1:15)
07 - Strike (3:52)
08 - Welcome To The Gorky Park (4:23)
09 - Two Candles (5:02)
10 - I'm Going Down (4:31)
11 - City Of Pain (4:58)
12 - Don't Pull The Trigger (4:55)
13 - Tell Me Why (3:24)

Duration:57:34
EAC extraction logfile from 12. August 2007, 21:03 for CD   
Gorky Park / Moscow Calling

Used drive : PIONEER DVD-RW DVR-109 Adapter: 0 ID: 0
Read mode : Secure with NO C2, accurate stream, disable cache
Read offset correction : 48
Overread into Lead-In and Lead-Out : No

Used output format : Internal WAV Routines
44.100 Hz; 16 Bit; Stereo

Other options :
Fill up missing offset samples with silence : Yes
Delete leading and trailing silent blocks : No
Installed external ASPI interface

Range status and errors
Selected range
Filename D:\New Folder (2)\Share\2007\Gorky Park - Moscow Calling.wav

Peak level 100.0 %
Range quality 100.0 %
CRC C3E390D8
Copy OK

No errors occured

End of status report
REM GENRE Hard Rock   
REM DATE 1992
PERFORMER "Gorky Park"
TITLE "Moscow Calling"
FILE "01 - Moscow Calling.flac" WAVE
TRACK 01 AUDIO
TITLE "Moscow Calling"
PERFORMER "Gorky Park"
INDEX 01 00:00:00
FILE "02 - All Roads.flac" WAVE
TRACK 02 AUDIO
TITLE "All Roads"
PERFORMER "Gorky Park"
INDEX 01 00:00:00
FILE "03 - Politics Of Love.flac" WAVE
TRACK 03 AUDIO
TITLE "Politics Of Love"
PERFORMER "Gorky Park"
INDEX 01 00:00:00
FILE "04 - Tomorrow.flac" WAVE
TRACK 04 AUDIO
TITLE "Tomorrow"
PERFORMER "Gorky Park"
INDEX 01 00:00:00
FILE "05 - Stranger.flac" WAVE
TRACK 05 AUDIO
TITLE "Stranger"
PERFORMER "Gorky Park"
INDEX 01 00:00:00
FILE "06 - Volga Boatman.flac" WAVE
TRACK 06 AUDIO
TITLE "Volga Boatman"
PERFORMER "Gorky Park"
INDEX 01 00:00:00
FILE "07 - Strike.flac" WAVE
TRACK 07 AUDIO
TITLE "Strike"
PERFORMER "Gorky Park"
INDEX 01 00:00:00
FILE "08 - Welcome To The Gorky Park.flac" WAVE
TRACK 08 AUDIO
TITLE "Welcome To The Gorky Park"
PERFORMER "Gorky Park"
INDEX 01 00:00:00
FILE "09 - Two Candles.flac" WAVE
TRACK 09 AUDIO
TITLE "Two Candles"
PERFORMER "Gorky Park"
INDEX 01 00:00:00
FILE "10 - I'm Going Down.flac" WAVE
TRACK 10 AUDIO
TITLE "I'm Going Down"
PERFORMER "Gorky Park"
INDEX 01 00:00:00
FILE "11 - City Of Pain.flac" WAVE
TRACK 11 AUDIO
TITLE "City Of Pain"
PERFORMER "Gorky Park"
INDEX 01 00:00:00
FILE "12 - Don't Pull The Trigger.flac" WAVE
TRACK 12 AUDIO
TITLE "Don't Pull The Trigger"
PERFORMER "Gorky Park"
INDEX 01 00:00:00
FILE "13 - Tell Me Why.flac" WAVE
TRACK 13 AUDIO
TITLE "Tell Me Why"
PERFORMER "Gorky Park"
INDEX 01 00:00:00


01 - Stare (4:58)
02 - California Promises (3:56)
03 - Five Wheel Drive (4:28)
04 - Ego (5:53)
05 - Stop The World I Want To Get Off (4:36)
06 - Taiga (3:20)
07 - Don't Make Me Stay (5:38)
08 - Live For... (4:28)
09 - Scared (5:47)
10 - Animal Shelter (5:07)
11 - Ocean (3:54)

Duration: 52:04
Log translation at http://eachelper.okamihost.com/   

Exact Audio Copy V0.99 prebeta 5 from 4. May 2009

EAC extraction logfile from 30. June 2009, 21:08

Gorky Park / Stare

Used drive : PIONEER DVD-RW DVR-216D Adapter: 0 ID: 1

Read mode : Secure
Utilize accurate stream : Yes
Defeat audio cache : Yes
Make use of C2 pointers : No

Read offset correction : 96
Overread into Lead-In and Lead-Out : No
Fill up missing offset samples with silence : Yes
Delete leading and trailing silent blocks : No
Null samples used in CRC calculations : Yes
Used interface : Installed external ASPI interface

Used output format : User Defined Encoder
Selected bitrate : 128 kBit/s
Quality : High
Add ID3 tag : No
Command line compressor : C:\Program Files\Exact Audio Copy\Flac\flac.exe
Additional command line options : -V -8 -T "Artist=%a" -T "Title=%t" -T "Album=%g" -T "Year=%y" -T "Tracknumber=%n" -T "Genre=%m" -T "Comment=%e" %s

TOC of the extracted CD

Track | Start | Length | Start sector | End sector
---------------------------------------------------------
1 | 0:00.10 | 4:57.65 | 10 | 22349
2 | 4:58.00 | 3:56.27 | 22350 | 40076
3 | 8:54.27 | 4:27.48 | 40077 | 60149
4 | 13:22.00 | 5:52.60 | 60150 | 86609
5 | 19:14.60 | 4:35.57 | 86610 | 107291
6 | 23:50.42 | 3:19.68 | 107292 | 122284
7 | 27:10.35 | 5:37.70 | 122285 | 147629
8 | 32:48.30 | 4:27.45 | 147630 | 167699
9 | 37:16.00 | 5:47.22 | 167700 | 193746
10 | 43:03.22 | 5:06.55 | 193747 | 216751
11 | 48:10.02 | 3:54.25 | 216752 | 234326

Range status and errors

Selected range

Filename C:\Documents and Settings\Àäìèíèñòðàòîð\Ìîè äîêóìåíòû\Ìîÿ ìóçûêà\Gorky Park - Stare.wav

Peak level 99.8 %
Range quality 99.9 %
Test CRC 118F679E
Copy CRC 118F679E
Copy OK

No errors occurred

AccurateRip summary
Track 1 not present in database
Track 2 not present in database
Track 3 not present in database
Track 4 not present in database
Track 5 not present in database
Track 6 not present in database
Track 7 not present in database
Track 8 not present in database
Track 9 not present in database
Track 10 not present in database
Track 11 not present in database
None of the tracks are present in the AccurateRip database

End of status report
REM GENRE Hard Rock   
REM DATE 1996
PERFORMER "Gorky Park"
TITLE "Stare"
FILE "01 - Stare.flac" WAVE
TRACK 01 AUDIO
TITLE "Stare"
PERFORMER "Gorky Park"
INDEX 01 00:00:00
FILE "02 - California Promises.flac" WAVE
TRACK 02 AUDIO
TITLE "California Promises"
PERFORMER "Gorky Park"
INDEX 01 00:00:00
FILE "03 - Five Wheel Drive.flac" WAVE
TRACK 03 AUDIO
TITLE "Five Wheel Drive"
PERFORMER "Gorky Park"
INDEX 01 00:00:00
FILE "04 - Ego.flac" WAVE
TRACK 04 AUDIO
TITLE "Ego"
PERFORMER "Gorky Park"
INDEX 01 00:00:00
FILE "05 - Stop The World I Want To Get Off.flac" WAVE
TRACK 05 AUDIO
TITLE "Stop The World I Want To Get Off"
PERFORMER "Gorky Park"
INDEX 01 00:00:00
FILE "06 - Taiga.flac" WAVE
TRACK 06 AUDIO
TITLE "Taiga"
PERFORMER "Gorky Park"
INDEX 01 00:00:00
FILE "07 - Don't Make Me Stay.flac" WAVE
TRACK 07 AUDIO
TITLE "Don't Make Me Stay"
PERFORMER "Gorky Park"
INDEX 01 00:00:00
FILE "08 - Live For....flac" WAVE
TRACK 08 AUDIO
TITLE "Live For..."
PERFORMER "Gorky Park"
INDEX 01 00:00:00
FILE "09 - Scared.flac" WAVE
TRACK 09 AUDIO
TITLE "Scared"
PERFORMER "Gorky Park"
INDEX 01 00:00:00
FILE "10 - Animal Shelter.flac" WAVE
TRACK 10 AUDIO
TITLE "Animal Shelter"
PERFORMER "Gorky Park"
INDEX 01 00:00:00
FILE "11 - Ocean.flac" WAVE
TRACK 11 AUDIO
TITLE "Ocean"
PERFORMER "Gorky Park"
INDEX 01 00:00:00


01 - Jenny Loses Me (3:43)
02 - Liar (4:22)
03 - Reaching (3:03)
04 - Far All We Can Say (4:44)
05 - Little Asian Girl (3:16)
06 - Wannabee (4:24)
07 - Burn Away (5:06)
08 - Uforia (3:03)
09 - Liquid Dream (2:45)
10 - Back Down To The Ground (5:31)
11 - My Friend (3:50)
12 - Moving To Be Still (4:19)

Duration: 48:06
Log translation at http://eachelper.okamihost.com/   

EAC extraction logfile from 26. September 2006, 22:02 for CD
Gorky Park / Protivofazza

Used drive : PLEXTOR CD-R PREMIUM Adapter: 5 ID: 1
Read mode : Secure with NO C2, accurate stream, disable cache
Read offset correction : 30
Overread into Lead-In and Lead-Out : Yes

Used output format : Internal WAV Routines
44.100 Hz; 16 Bit; Stereo

Other options :
Fill up missing offset samples with silence : Yes
Delete leading and trailing silent blocks : No
Installed external ASPI interface

Range status and errors
Selected range
Filename Z:\temp\Gorky Park - Protivofazza\Gorky Park - Protivofazza.wav

Peak level 99.8 %
Range quality 100.0 %
CRC 8F6E857B
Copy OK

No errors occured

End of status report
REM GENRE Hard Rock   
REM DATE 1998
PERFORMER "Gorky Park"
TITLE "Protivofazza"
FILE "01 - Jenny Loses Me.flac" WAVE
TRACK 01 AUDIO
TITLE "Jenny Loses Me"
PERFORMER "Gorky Park"
INDEX 01 00:00:00
FILE "02 - Liar.flac" WAVE
TRACK 02 AUDIO
TITLE "Liar"
PERFORMER "Gorky Park"
INDEX 01 00:00:00
FILE "03 - Reaching.flac" WAVE
TRACK 03 AUDIO
TITLE "Reaching"
PERFORMER "Gorky Park"
INDEX 01 00:00:00
FILE "04 - Far All We Can Say.flac" WAVE
TRACK 04 AUDIO
TITLE "Far All We Can Say"
PERFORMER "Gorky Park"
INDEX 01 00:00:00
FILE "05 - Little Asian Girl.flac" WAVE
TRACK 05 AUDIO
TITLE "Little Asian Girl"
PERFORMER "Gorky Park"
INDEX 01 00:00:00
FILE "06 - Wannabee.flac" WAVE
TRACK 06 AUDIO
TITLE "Wannabee"
PERFORMER "Gorky Park"
INDEX 01 00:00:00
FILE "07 - Burn Away.flac" WAVE
TRACK 07 AUDIO
TITLE "Burn Away"
PERFORMER "Gorky Park"
INDEX 01 00:00:00
FILE "08 - Uforia.flac" WAVE
TRACK 08 AUDIO
TITLE "Uforia"
PERFORMER "Gorky Park"
INDEX 01 00:00:00
FILE "09 - Liquid Dream.flac" WAVE
TRACK 09 AUDIO
TITLE "Liquid Dream"
PERFORMER "Gorky Park"
INDEX 01 00:00:00
FILE "10 - Back Down To The Ground.flac" WAVE
TRACK 10 AUDIO
TITLE "Back Down To The Ground"
PERFORMER "Gorky Park"
INDEX 01 00:00:00
FILE "11 - My Friend.flac" WAVE
TRACK 11 AUDIO
TITLE "My Friend"
PERFORMER "Gorky Park"
INDEX 01 00:00:00
FILE "12 - Moving To Be Still.flac" WAVE
TRACK 12 AUDIO
TITLE "Moving To Be Still"
PERFORMER "Gorky Park"
INDEX 01 00:00:00


01 - Stare (5:02)
02 - I'm Going Down (4:33)
03 - My Generation (4:49)
04 - Don't Make Me Stay (5:40)
05 - Stranger (4:53)
06 - Nitti Gritti [Previously Unreleased] (3:58)
07 - Bang (4:51)
08 - Welcome To The Gorky Park (4:25)
09 - California Promises (4:01)
10 - Stop The World I Want To Get Off (4:38)
11 - Politics Of Love (4:08)
12 - Two Candles (5:04)
13 - Do What You Want [Previously Unreleased] (5:11)
14 - Moscow Calling (5:12)
15 - Tell My Why (3:25)

Duration: 1:09:51
Log translation at http://eachelper.okamihost.com/   

Exact Audio Copy V0.99 prebeta 5 from 4. May 2009

EAC extraction logfile from 10. November 2009, 10:59

Gorky Park / The Best

Used drive : Optiarc DVD RW AD-5200S Adapter: 1 ID: 0

Read mode : Secure
Utilize accurate stream : Yes
Defeat audio cache : Yes
Make use of C2 pointers : No

Read offset correction : 48
Overread into Lead-In and Lead-Out : No
Fill up missing offset samples with silence : Yes
Delete leading and trailing silent blocks : No
Null samples used in CRC calculations : Yes
Used interface : Installed external ASPI interface

Used output format : Internal WAV Routines
Sample format : 44.100 Hz; 16 Bit; Stereo

TOC of the extracted CD

Track | Start | Length | Start sector | End sector
---------------------------------------------------------
1 | 0:00.00 | 5:01.74 | 0 | 22648
2 | 5:01.74 | 4:32.41 | 22649 | 43089
3 | 9:34.40 | 4:49.09 | 43090 | 64773
4 | 14:23.49 | 5:39.74 | 64774 | 90272
5 | 20:03.48 | 4:53.16 | 90273 | 112263
6 | 24:56.64 | 3:58.09 | 112264 | 130122
7 | 28:54.73 | 4:51.04 | 130123 | 151951
8 | 33:46.02 | 4:25.09 | 151952 | 171835
9 | 38:11.11 | 4:01.11 | 171836 | 189921
10 | 42:12.22 | 4:37.61 | 189922 | 210757
11 | 46:50.08 | 4:08.29 | 210758 | 229386
12 | 50:58.37 | 5:03.62 | 229387 | 252173
13 | 56:02.24 | 5:11.37 | 252174 | 275535
14 | 61:13.61 | 5:11.66 | 275536 | 298926
15 | 66:25.52 | 3:25.02 | 298927 | 314303

Range status and errors

Selected range

Filename D:\Èãîð¸÷å-÷å-ê\Gorky Park - The Best.wav

Peak level 100.0 %
Range quality 99.9 %
Copy CRC DF16BE22
Copy OK

No errors occurred

AccurateRip summary
Track 1 not present in database
Track 2 not present in database
Track 3 not present in database
Track 4 not present in database
Track 5 not present in database
Track 6 not present in database
Track 7 not present in database
Track 8 not present in database
Track 9 not present in database
Track 10 not present in database
Track 11 not present in database
Track 12 not present in database
Track 13 not present in database
Track 14 not present in database
Track 15 not present in database
None of the tracks are present in the AccurateRip database

End of status report
REM GENRE Hard Rock   
REM DATE 1998
PERFORMER "Gorky Park"
TITLE "The Best"
FILE "01 - Stare.flac" WAVE
TRACK 01 AUDIO
TITLE "Stare"
PERFORMER "Gorky Park"
INDEX 01 00:00:00
FILE "02 - I'm Going Down.flac" WAVE
TRACK 02 AUDIO
TITLE "I'm Going Down"
PERFORMER "Gorky Park"
INDEX 01 00:00:00
FILE "03 - My Generation.flac" WAVE
TRACK 03 AUDIO
TITLE "My Generation"
PERFORMER "Gorky Park"
INDEX 01 00:00:00
FILE "04 - Don't Make Me Stay.flac" WAVE
TRACK 04 AUDIO
TITLE "Don't Make Me Stay"
PERFORMER "Gorky Park"
INDEX 01 00:00:00
FILE "05 - Stranger.flac" WAVE
TRACK 05 AUDIO
TITLE "Stranger"
PERFORMER "Gorky Park"
INDEX 01 00:00:00
FILE "06 - Nitti Gritti [Previously Unreleased].flac" WAVE
TRACK 06 AUDIO
TITLE "Nitti Gritti [Previously Unreleased]"
PERFORMER "Gorky Park"
INDEX 01 00:00:00
FILE "07 - Bang.flac" WAVE
TRACK 07 AUDIO
TITLE "Bang"
PERFORMER "Gorky Park"
INDEX 01 00:00:00
FILE "08 - Welcome To The Gorky Park.flac" WAVE
TRACK 08 AUDIO
TITLE "Welcome To The Gorky Park"
PERFORMER "Gorky Park"
INDEX 01 00:00:00
FILE "09 - California Promises.flac" WAVE
TRACK 09 AUDIO
TITLE "California Promises"
PERFORMER "Gorky Park"
INDEX 01 00:00:00
FILE "10 - Stop The World I Want To Get Off.flac" WAVE
TRACK 10 AUDIO
TITLE "Stop The World I Want To Get Off"
PERFORMER "Gorky Park"
INDEX 01 00:00:00
FILE "11 - Politics Of Love.flac" WAVE
TRACK 11 AUDIO
TITLE "Politics Of Love"
PERFORMER "Gorky Park"
INDEX 01 00:00:00
FILE "12 - Two Candles.flac" WAVE
TRACK 12 AUDIO
TITLE "Two Candles"
PERFORMER "Gorky Park"
INDEX 01 00:00:00
FILE "13 - Do What You Want [Previously Unreleased].flac" WAVE
TRACK 13 AUDIO
TITLE "Do What You Want [Previously Unreleased]"
PERFORMER "Gorky Park"
INDEX 01 00:00:00
FILE "14 - Moscow Calling.flac" WAVE
TRACK 14 AUDIO
TITLE "Moscow Calling"
PERFORMER "Gorky Park"
INDEX 01 00:00:00
FILE "15 - Tell My Why.flac" WAVE
TRACK 15 AUDIO
TITLE "Tell My Why"
PERFORMER "Gorky Park"
INDEX 01 00:00:00


01. Moscow Calling (
02. Stranger
03. Stare
04. Two Candles
05. Politics of Love
06. Ocean
07. Welcome to the Gorky Park
08. California promise
09. Tell Me Why
10. All Roads
11. Wannabee
12. Live For
13. I'm Going Down
14. Little again girl
15. Scared
16. Don't Pull The Trigger
Exact Audio Copy V0.99 prebeta 4 from 23. January 2008   

Отчёт EAC об извлечении, выполненном 29. сентября 2008, 23:39

Gorky Park / Grand Collections

Дисковод: _NEC DVD+-RW ND-6650A Adapter: 0 ID: 0

Режим чтения : Достоверность
Использование точного потока : Да
Отключение кэша аудио : Да
Использование указателей C2 : Нет

Коррекция смещения при чтении : 48
Способность читать области Lead-in и Lead-out : Нет
Заполнение пропущенных сэмплов тишиной : Да
Удаление блоков с тишиной в начале и конце : Нет
При вычислениях CRC использовались нулевые сэмплы : Да
Интерфейс : Установленный внешний ASPI-интерфейс

Выходной формат : Внутренние WAV-операции
Формат сэмплов : 44.100 Гц; 16 бит; стерео

TOC извлечённого CD

Трек | Старт | Длительность | Начальный сектор | Конечный сектор
---------------------------------------------------------------------
1 | 0:00.00 | 5:11.62 | 0 | 23386
2 | 5:11.62 | 4:51.68 | 23387 | 45279
3 | 10:03.55 | 4:58.19 | 45280 | 67648
4 | 15:01.74 | 5:06.48 | 67649 | 90646
5 | 20:08.47 | 4:07.68 | 90647 | 109239
6 | 24:16.40 | 3:55.37 | 109240 | 126901
7 | 28:12.02 | 4:24.49 | 126902 | 146750
8 | 32:36.51 | 3:57.55 | 146751 | 164580
9 | 36:34.31 | 3:27.00 | 164581 | 180105
10 | 40:01.31 | 5:13.38 | 180106 | 203618
11 | 45:14.69 | 4:24.46 | 203619 | 223464
12 | 49:39.40 | 4:29.45 | 223465 | 243684
13 | 54:09.10 | 4:32.37 | 243685 | 264121
14 | 58:41.47 | 3:16.49 | 264122 | 278870
15 | 61:58.21 | 5:49.22 | 278871 | 305067
16 | 67:47.43 | 4:55.20 | 305068 | 327212

Характеристики диапазона извлечения и сообщения об ошибках

Выбранный диапазон

Имя файла C:\Documents and Settings\Admin\Мои документы\музыка\Gorky Park - Grand Collections 2002\Gorky Park - Grand Collections.wav

Пиковый уровень 100.0 %
Качество диапазона 100.0 %
CRC копии 3A5219AE
Копирование... OK

Ошибок не произошло

AccurateRip: сводка
Трек 1 нет в базе данных
Трек 2 нет в базе данных
Трек 3 нет в базе данных
Трек 4 нет в базе данных
Трек 5 нет в базе данных
Трек 6 нет в базе данных
Трек 7 нет в базе данных
Трек 8 нет в базе данных
Трек 9 нет в базе данных
Трек 10 нет в базе данных
Трек 11 нет в базе данных
Трек 12 нет в базе данных
Трек 13 нет в базе данных
Трек 14 нет в базе данных
Трек 15 нет в базе данных
Трек 16 нет в базе данных
Ни одного трека нет в базе AccurateRip

Конец отчёта
REM GENRE Rock   
REM DATE 2002
REM DISCID D7110A10
REM COMMENT "ExactAudioCopy v0.99pb4"
PERFORMER "Gorky Park"
TITLE "Grand Collections"
FILE "Gorky Park - Grand Collections.wav" WAVE
TRACK 01 AUDIO
TITLE "Moscow calling"
PERFORMER "Gorky Park"
INDEX 01 00:00:00
TRACK 02 AUDIO
TITLE "Stranger"
PERFORMER "Gorky Park"
INDEX 00 05:09:62
INDEX 01 05:11:62
TRACK 03 AUDIO
TITLE "Stare"
PERFORMER "Gorky Park"
INDEX 00 10:01:55
INDEX 01 10:03:55
TRACK 04 AUDIO
TITLE "Two candles"
PERFORMER "Gorky Park"
INDEX 00 15:00:00
INDEX 01 15:01:74
TRACK 05 AUDIO
TITLE "Politics of Love"
PERFORMER "Gorky Park"
INDEX 00 20:03:57
INDEX 01 20:08:47
TRACK 06 AUDIO
TITLE "Ocean"
PERFORMER "Gorky Park"
INDEX 00 24:14:41
INDEX 01 24:16:40
TRACK 07 AUDIO
TITLE "Welcome to the Gorky Park"
PERFORMER "Gorky Park"
INDEX 00 28:10:03
INDEX 01 28:12:02
TRACK 08 AUDIO
TITLE "California promise"
PERFORMER "Gorky Park"
INDEX 00 32:34:52
INDEX 01 32:36:51
TRACK 09 AUDIO
TITLE "Tell me why"
PERFORMER "Gorky Park"
INDEX 00 36:32:32
INDEX 01 36:34:31
TRACK 10 AUDIO
TITLE "All roads"
PERFORMER "Gorky Park"
INDEX 00 39:59:31
INDEX 01 40:01:31
TRACK 11 AUDIO
TITLE "Wannabee"
PERFORMER "Gorky Park"
INDEX 00 45:12:69
INDEX 01 45:14:69
TRACK 12 AUDIO
TITLE "Live for"
PERFORMER "Gorky Park"
INDEX 00 49:37:40
INDEX 01 49:39:40
TRACK 13 AUDIO
TITLE "I'm going down"
PERFORMER "Gorky Park"
INDEX 00 54:07:10
INDEX 01 54:09:10
TRACK 14 AUDIO
TITLE "Little again girl"
PERFORMER "Gorky Park"
INDEX 00 58:39:47
INDEX 01 58:41:47
TRACK 15 AUDIO
TITLE "Scared"
PERFORMER "Gorky Park"
INDEX 00 61:56:22
INDEX 01 61:58:21
TRACK 16 AUDIO
TITLE "Don't pull the trigger"
PERFORMER "Gorky Park"
INDEX 00 67:45:43
INDEX 01 67:47:43


Трекер:  [ 15-Ноя-2012 11:04 ]

  

Скачать .torrent

Размер .torrent файла 47 KB


Размер: 2.4 GB
Хэш (hash) релиза: 4c7148ac89073cd294e7115e4840820758f149ba

Еще никто не оставлял запись к записи скачать торрент Gorky Park - Дискография . Будь первым!

!Обратная связь