Скачать через торрент музыку Sabu - Between The Light - 1998, APE бесплатно без регистрации torrent

Если у вас наблюдаются проблемы со скриншотами, переходом по ссылками, скачиванием торрентов - проблемы в блокировщике рекламы AdBlock. #хорошегоДня!


Статистика раздачи
Размер:  335 MB   |    Зарегистрирован:  4 года 9 месяцев   |    .torrent скачан:  16 раз   |   
Раздают:  1  
   
Загрузка...
 
Автор Сообщение

Galfimbul

avatar Galfimbul


Sabu / Between The Light
Жанр: Hard Rock
Страна-производитель диска: Germany
Год издания: 1998
Издатель (лейбл): USG Records
Номер по каталогу: USG 1023-2
Страна: USA
Аудиокодек: APE (*.ape)
Тип рипа: image+.cue
Битрейт аудио: lossless
Продолжительность: 39:22
Источник (релизер): Свой рип с оригинального CD
Наличие сканов в содержимом раздачи: 300dpi
Tracks:
01. Spitfire
02. Let A Sleeping Dog Lie
03. Mind Over Matter
04. Bring Us Love
05. If I'd Never Asked You To Dance
06. 'Til Your Heart's Calm
07. I Just Ain't
08. You Might Get Stuck
09. I Was Made To Love Her
10. Get It While It's Hot

Personnel
Paul Sabu - Vocals, Acoustic Guitar
Angel Schleifer - All Guitars
Joerg Deisinger - Bass
Tony Montana - Drums
Derek Smith - Drums

Exact Audio Copy V0.99 prebeta 4 from 23. January 2008

Отчёт EAC об извлечении, выполненном 11. июля 2011, 17:58

Sabu / Between The Light

Дисковод: ASUS DRW-22B2L b Adapter: 0 ID: 0

Режим чтения : ДостоверностьИспользование точного потока : ДаОтключение кэша аудио : ДаИспользование указателей C2 : Нет

Коррекция смещения при чтении : 6Способность читать области Lead-in и Lead-out : НетЗаполнение пропущенных сэмплов тишиной : ДаУдаление блоков с тишиной в начале и конце : НетПри вычислениях CRC использовались нулевые сэмплы : ДаИнтерфейс : Встроенный Win32-интерфейс для Win NT/2000

Выходной формат : Внутренние WAV-операцииФормат сэмплов : 44.100 Гц; 16 бит; стерео

TOC извлечённого CD

Трек | Старт | Длительность | Начальный сектор | Конечный сектор --------------------------------------------------------------------- 1 | 0:00.00 | 3:44.52 | 0 | 16851 2 | 3:44.52 | 3:52.08 | 16852 | 34259 3 | 7:36.60 | 3:44.39 | 34260 | 51098 4 | 11:21.24 | 4:08.25 | 51099 | 69723 5 | 15:29.49 | 4:39.63 | 69724 | 90711 6 | 20:09.37 | 4:20.30 | 90712 | 110241 7 | 24:29.67 | 3:28.02 | 110242 | 125843 8 | 27:57.69 | 3:50.07 | 125844 | 143100 9 | 31:48.01 | 3:42.29 | 143101 | 159779 10 | 35:30.30 | 3:51.63 | 159780 | 177167

Характеристики диапазона извлечения и сообщения об ошибках

Выбранный диапазон

Имя файла C:\Documents and Settings\booddoom\Рабочий стол\Новая папка\Sabu - Between The Light.wav

Пиковый уровень 100.0 % Качество диапазона 100.0 % CRC теста ED7857D3 CRC копии ED7857D3 Копирование... OK

Ошибок не произошло

AccurateRip: сводка

Трек 1 точное извлечение (доверие 5) [1195DCC6]Трек 2 точное извлечение (доверие 5) [722FBA3E]Трек 3 точное извлечение (доверие 5) [6291DCFC]Трек 4 точное извлечение (доверие 5) [1C0A8D07]Трек 5 точное извлечение (доверие 5) [1B16C68C]Трек 6 точное извлечение (доверие 5) [27D82C5F]Трек 7 точное извлечение (доверие 5) [1798C548]Трек 8 точное извлечение (доверие 5) [30307808]Трек 9 точное извлечение (доверие 5) [7111673D]Трек 10 точное извлечение (доверие 5) [41B778A0]

Все треки извлечены точно

Конец отчёта
REM GENRE RockREM DATE 1998REM DISCID 77093A0AREM COMMENT "ExactAudioCopy v0.99pb4"PERFORMER "Sabu"TITLE "Between The Light"FILE "Sabu - Between The Light.wav" WAVE TRACK 01 AUDIO TITLE "Spitfire" PERFORMER "Sabu" INDEX 01 00:00:00 TRACK 02 AUDIO TITLE "Let A Sleeping Dog Lie" PERFORMER "Sabu" INDEX 00 03:42:52 INDEX 01 03:44:52 TRACK 03 AUDIO TITLE "Mind Over Matter" PERFORMER "Sabu" INDEX 00 07:34:60 INDEX 01 07:36:60 TRACK 04 AUDIO TITLE "Bring Us Love" PERFORMER "Sabu" INDEX 00 11:19:24 INDEX 01 11:21:24 TRACK 05 AUDIO TITLE "If I'd Never Asked You To Dance" PERFORMER "Sabu" INDEX 00 15:27:49 INDEX 01 15:29:49 TRACK 06 AUDIO TITLE "'Til Your Heart's Calm" PERFORMER "Sabu" INDEX 00 20:07:37 INDEX 01 20:09:37 TRACK 07 AUDIO TITLE "I Just Ain't" PERFORMER "Sabu" INDEX 00 24:27:67 INDEX 01 24:29:67 TRACK 08 AUDIO TITLE "You Might Get Stuck" PERFORMER "Sabu" INDEX 00 27:55:69 INDEX 01 27:57:69 TRACK 09 AUDIO TITLE "I Was Made To Love Her" PERFORMER "Sabu" INDEX 00 31:46:01 INDEX 01 31:48:01 TRACK 10 AUDIO TITLE "Get It While It's Hot" PERFORMER "Sabu" INDEX 00 35:28:30 INDEX 01 35:30:30


Трекер:  [ 11-Ноя-2012 19:17 ]

  

Скачать .torrent

Размер .torrent файла 14 KB


Размер: 335 MB
Хэш (hash) релиза: e8f9acf36719b2399e3fe7c83d69eaf881f64e19

Еще никто не оставлял запись к записи скачать торрент Sabu - Between The Light - 1998, APE . Будь первым!

!Обратная связь