Скачать через торрент музыку Johnny Otis Orchestra - Rock n Roll Hit Parade - 1957, FLAC бесплатно без регистрации torrent

Если у вас наблюдаются проблемы со скриншотами, переходом по ссылками, скачиванием торрентов - проблемы в блокировщике рекламы AdBlock. #хорошегоДня!


Статистика раздачи
Размер:  211 MB   |    Зарегистрирован:  5 лет   |    .torrent скачан:  13 раз   |   
Раздают:  1  
   
Загрузка...
 
Автор Сообщение

Galfimbul

avatar Galfimbul


Johnny Otis Orchestra / Rock 'n' Roll Hit Parade

Жанр: Rock'n'Roll / Doo Wop
Страна-производитель диска: UK
Год издания: 1957 (2000)
Издатель (лейбл): Ace Records
Номер по каталогу: CDCHD 774
Страна: USA
Аудиокодек: FLAC (*.flac)
Тип рипа: image+.cue
Битрейт аудио: lossless
Продолжительность: 69:05
Источник (релизер): AUDELAS KINGDOM
Наличие сканов в содержимом раздачи: да
01. Honey Love - The Jayos
02. Sh-Boom (Life Could Be A Dream) - The Jayos
03. Earth Angel - The Jayos
04. Gee! - The Jayos
05. Sincerly - The Jayos
06. The Midnight Creeper (Part 1) - The Johnny Otis Orchestra
07. At My Front Door - The Jayos
08. Long Tall Sally - The Johnny Otis Orchestra
09. Only You - The Jayos
10. One Mint Julep - The Jayos
11. Hey! Hey! Hey! Hey! - The Johnny Otis Orchestra
12. Please Don't Leave Me - The Johnny Otis Orchestra
13. Shake A Hand - Jeannie Barnes
14. Sexy Ways - The Jayos
15. Ko Ko Mo, I Love You So - Arthur Lee Maye/Mel Williams
16. Fever - Arthur Lee Maye
17. It's Love Baby - Harold Lewis
18. I Almost Lost My Mind - Prince Moreland
19. The Midnight Creeper (Part 2) - The Johnny Otis Orchestra
20. Good Lovin' - The Jayos
21. Teardrops From My Eyes - Jeannie Barnes
22. I Need You So - Prince Moreland
23. I Cried A Million Tears - Mel Williams
24. All Through The Night - Mel Williams

Exact Audio Copy V1.0 beta 2 from 29. April 2011

EAC extraction logfile from 5. November 2012, 19:18

Johnny Otis Orchestra / Rock 'n' Roll Hit Parade

Used drive : _NEC DVD_RW ND-3550A Adapter: 1 ID: 0

Read mode : SecureUtilize accurate stream : YesDefeat audio cache : YesMake use of C2 pointers : No

Read offset correction : 48Overread into Lead-In and Lead-Out : NoFill up missing offset samples with silence : YesDelete leading and trailing silent blocks : NoNull samples used in CRC calculations : YesUsed interface : Native Win32 interface for Win NT & 2000

Used output format : User Defined EncoderSelected bitrate : 768 kBit/sQuality : HighAdd ID3 tag : NoCommand line compressor : C:\Program Files\Exact Audio Copy\FLAC\FLAC.EXEAdditional command line options : -6 -V -T "ARTIST=%artist%" -T "TITLE=%title%" -T "ALBUM=%albumtitle%" -T "DATE=%year%" -T "TRACKNUMBER=%tracknr%" -T "GENRE=%genre%" -T "COMMENT=%comment%" -T "BAND=%albuminterpret%" -T "COMPOSER=%composer%" %haslyrics%--ta

TOC of the extracted CD

Track | Start | Length | Start sector | End sector --------------------------------------------------------- 1 | 0:00.00 | 2:23.73 | 0 | 10797 2 | 2:23.73 | 2:24.20 | 10798 | 21617 3 | 4:48.18 | 3:00.18 | 21618 | 35135 4 | 7:48.36 | 2:01.02 | 35136 | 44212 5 | 9:49.38 | 3:09.10 | 44213 | 58397 6 | 12:58.48 | 2:55.49 | 58398 | 71571 7 | 15:54.22 | 2:32.13 | 71572 | 82984 8 | 18:26.35 | 1:53.37 | 82985 | 91496 9 | 20:19.72 | 2:34.06 | 91497 | 103052 10 | 22:54.03 | 2:20.30 | 103053 | 113582 11 | 25:14.33 | 2:56.25 | 113583 | 126807 12 | 28:10.58 | 2:27.50 | 126808 | 137882 13 | 30:38.33 | 2:41.55 | 137883 | 150012 14 | 33:20.13 | 2:17.72 | 150013 | 160359 15 | 35:38.10 | 2:43.62 | 160360 | 172646 16 | 38:21.72 | 2:39.13 | 172647 | 184584 17 | 41:01.10 | 2:33.19 | 184585 | 196078 18 | 43:34.29 | 2:43.08 | 196079 | 208311 19 | 46:17.37 | 2:35.59 | 208312 | 219995 20 | 48:53.21 | 2:58.20 | 219996 | 233365 21 | 51:51.41 | 2:54.64 | 233366 | 246479 22 | 54:46.30 | 2:50.73 | 246480 | 259302 23 | 57:37.28 | 2:21.00 | 259303 | 269877 24 | 59:58.28 | 2:16.35 | 269878 | 280112

Range status and errors

Selected range

Filename D:\Muzika\Johnny Otis Orchestra - Rock 'n' Roll Hit Parade (1957)\Johnny Otis Orchestra - Rock 'n' Roll Hit Parade.wav

Peak level 97.7 % Extraction speed 5.0 X Range quality 100.0 % Test CRC 7DDB92E7 Copy CRC 7DDB92E7 Copy OK

No errors occurred

AccurateRip summary

Track 1 not present in databaseTrack 2 not present in databaseTrack 3 not present in databaseTrack 4 not present in databaseTrack 5 not present in databaseTrack 6 not present in databaseTrack 7 not present in databaseTrack 8 not present in databaseTrack 9 not present in databaseTrack 10 not present in databaseTrack 11 not present in databaseTrack 12 not present in databaseTrack 13 not present in databaseTrack 14 not present in databaseTrack 15 not present in databaseTrack 16 not present in databaseTrack 17 not present in databaseTrack 18 not present in databaseTrack 19 not present in databaseTrack 20 not present in databaseTrack 21 not present in databaseTrack 22 not present in databaseTrack 23 not present in databaseTrack 24 not present in database

None of the tracks are present in the AccurateRip database

End of status report

==== Log checksum F422CF1B7E8A8E190D504858F1810E4CC38560C256979E9ACBAE014622A8BE3F ====


Трекер:  [ 11-Ноя-2012 19:17 ]

  

Скачать .torrent

Размер .torrent файла 17 KB


Размер: 211 MB
Хэш (hash) релиза: 960653d2e983d304369bfa366bc7ec2e8c42b8b2

Еще никто не оставлял запись к записи скачать торрент Johnny Otis Orchestra - Rock n Roll Hit Parade - 1957, FLAC . Будь первым!

!Обратная связь