Скачать через торрент музыку Carl Perkins - Up Through The Years 1954-57 - 1986, FLAC бесплатно без регистрации torrent

Если у вас наблюдаются проблемы со скриншотами, переходом по ссылками, скачиванием торрентов - проблемы в блокировщике рекламы AdBlock. #хорошегоДня!


Статистика раздачи
Размер:  316 MB   |    Зарегистрирован:  4 года 11 месяцев   |    .torrent скачан:  11 раз   |   
Раздают:  1  
   
Загрузка...
 
Автор Сообщение

Galfimbul

avatar Galfimbul


Carl Perkins / Up Through The Years 1954-57

Жанр: Rockabilly / Hillbilly
Страна-производитель диска: West Germany
Год издания: 1986
Издатель (лейбл): Bear Family Records
Номер по каталогу: BCD 15246
Страна: USA
Аудиокодек: FLAC (*.flac)
Тип рипа: image+.cue
Битрейт аудио: lossless
Продолжительность: 54:13
Источник (релизер): AUDELAS KINGDOM
Наличие сканов в содержимом раздачи: да
01. Honky Tonk Gal
02. Movie Magg
03. Turn Around
04. Gone, Gone, Gone
05. Let The Jukebox Keep On Playing
06. You Can't Make Love To Somebody
07. Blue Suede Shoes
08. Honey Don't
09. Tennessee
10. Boppin' The Blues
11. All Mama's Children
12. Everybody's Trying To Be My Baby
13. Dixie Fried
14. I'm Sorry I'm Not Sorry
15. You Can Do No Wrong
16. Matchbox
17. Your True Love
18. Put Your Cat Clothes On
19. Only You
20. Pink Pedal Pushers
21. That's Right
22. Lend Me Your Comb
23. Glad All Over
24. Right String Baby (Wrong Yo-Yo)

Exact Audio Copy V1.0 beta 2 from 29. April 2011

EAC extraction logfile from 5. November 2012, 19:53

Carl Perkins / Up Through The Years 1954-57

Used drive : _NEC DVD_RW ND-3550A Adapter: 1 ID: 0

Read mode : SecureUtilize accurate stream : YesDefeat audio cache : YesMake use of C2 pointers : No

Read offset correction : 48Overread into Lead-In and Lead-Out : NoFill up missing offset samples with silence : YesDelete leading and trailing silent blocks : NoNull samples used in CRC calculations : YesUsed interface : Native Win32 interface for Win NT & 2000

Used output format : User Defined EncoderSelected bitrate : 768 kBit/sQuality : HighAdd ID3 tag : NoCommand line compressor : C:\Program Files\Exact Audio Copy\FLAC\FLAC.EXEAdditional command line options : -6 -V -T "ARTIST=%artist%" -T "TITLE=%title%" -T "ALBUM=%albumtitle%" -T "DATE=%year%" -T "TRACKNUMBER=%tracknr%" -T "GENRE=%genre%" -T "COMMENT=%comment%" -T "BAND=%albuminterpret%" -T "COMPOSER=%composer%" %haslyrics%--ta

TOC of the extracted CD

Track | Start | Length | Start sector | End sector --------------------------------------------------------- 1 | 0:00.00 | 1:59.05 | 0 | 8929 2 | 1:59.05 | 2:11.32 | 8930 | 18786 3 | 4:10.37 | 3:00.40 | 18787 | 32326 4 | 7:11.02 | 2:40.20 | 32327 | 44346 5 | 9:51.22 | 2:53.50 | 44347 | 57371 6 | 12:44.72 | 2:40.20 | 57372 | 69391 7 | 15:25.17 | 2:17.58 | 69392 | 79724 8 | 17:43.00 | 2:52.42 | 79725 | 92666 9 | 20:35.42 | 3:05.48 | 92667 | 106589 10 | 23:41.15 | 2:52.20 | 106590 | 119509 11 | 26:33.35 | 2:09.10 | 119510 | 129194 12 | 28:42.45 | 2:14.45 | 129195 | 139289 13 | 30:57.15 | 2:28.00 | 139290 | 150389 14 | 33:25.15 | 2:29.15 | 150390 | 161579 15 | 35:54.30 | 2:24.37 | 161580 | 172416 16 | 38:18.67 | 2:09.70 | 172417 | 182161 17 | 40:28.62 | 2:45.70 | 182162 | 194606 18 | 43:14.57 | 2:52.23 | 194607 | 207529 19 | 46:07.05 | 3:21.70 | 207530 | 222674 20 | 49:29.00 | 2:28.67 | 222675 | 233841 21 | 51:57.67 | 2:51.53 | 233842 | 246719 22 | 54:49.45 | 1:58.67 | 246720 | 255636 23 | 56:48.37 | 1:42.70 | 255637 | 263356 24 | 58:31.32 | 2:35.10 | 263357 | 274991

Range status and errors

Selected range

Filename D:\Muzika\Carl Perkins - Up Through The Years 1954-57 (1986)\Carl Perkins - Up Through The Years 1954-57.wav

Peak level 98.9 % Extraction speed 5.4 X Range quality 100.0 % Test CRC 8F49E361 Copy CRC 8F49E361 Copy OK

No errors occurred

AccurateRip summary

Track 1 accurately ripped (confidence 3) [19CBD667] (AR v1)Track 2 accurately ripped (confidence 3) [E22FE671] (AR v1)Track 3 accurately ripped (confidence 3) [2206D61F] (AR v1)Track 4 accurately ripped (confidence 3) [EE846AF1] (AR v1)Track 5 accurately ripped (confidence 3) [D697B97A] (AR v1)Track 6 accurately ripped (confidence 3) [FE478E1A] (AR v1)Track 7 accurately ripped (confidence 3) [51AC01AD] (AR v1)Track 8 accurately ripped (confidence 3) [A986327A] (AR v1)Track 9 accurately ripped (confidence 3) [29ECD796] (AR v1)Track 10 accurately ripped (confidence 3) [DDBEF276] (AR v1)Track 11 accurately ripped (confidence 3) [6E962526] (AR v1)Track 12 accurately ripped (confidence 3) [AD901C2A] (AR v1)Track 13 accurately ripped (confidence 3) [D4CE1640] (AR v1)Track 14 accurately ripped (confidence 3) [10500490] (AR v1)Track 15 accurately ripped (confidence 3) [928C857A] (AR v1)Track 16 accurately ripped (confidence 3) [46D20D17] (AR v1)Track 17 accurately ripped (confidence 3) [62DFE43D] (AR v1)Track 18 accurately ripped (confidence 3) [55C8BA8C] (AR v1)Track 19 accurately ripped (confidence 3) [A291E7C9] (AR v1)Track 20 accurately ripped (confidence 3) [778BD0D4] (AR v1)Track 21 accurately ripped (confidence 3) [2257DEE7] (AR v1)Track 22 accurately ripped (confidence 3) [B0552E32] (AR v1)Track 23 accurately ripped (confidence 4) [4E6A046B] (AR v1)Track 24 accurately ripped (confidence 3) [2E07AB6D] (AR v1)

All tracks accurately ripped

End of status report

==== Log checksum 593C5768080A04295C71A1229687E9E9A03D0CBB83DE034D38E178B47EB1A502 ====


Трекер:  [ 11-Ноя-2012 19:17 ]

  

Скачать .torrent

Размер .torrent файла 13 KB


Размер: 316 MB
Хэш (hash) релиза: e2a3e15067a1052753c83977631553adb48fef35

Еще никто не оставлял запись к записи скачать торрент Carl Perkins - Up Through The Years 1954-57 - 1986, FLAC . Будь первым!

!Обратная связь