Скачать через торрент музыку Jimmy Murphy - Sixteen Tons Rock n Roll 51-56 - 1989, FLAC бесплатно без регистрации torrent

Если у вас наблюдаются проблемы со скриншотами, переходом по ссылками, скачиванием торрентов - проблемы в блокировщике рекламы AdBlock. #хорошегоДня!


Статистика раздачи
Размер:  176 MB   |    Зарегистрирован:  4 года 9 месяцев   |    .torrent скачан:  7 раз   |   
Раздают:  1  
   
Загрузка...
 
Автор Сообщение

Galfimbul

avatar Galfimbul


Jimmy Murphy / Sixteen Tons Rock 'n' Roll

Жанр: Hillbilly
Страна-производитель диска: West Germany
Год издания: 1989
Издатель (лейбл): Bear Family Records
Номер по каталогу: BCD 15451
Страна: USA
Аудиокодек: FLAC (*.flac)
Тип рипа: image+.cue
Битрейт аудио: lossless
Продолжительность: 34:05
Источник (релизер): AUDELAS KINGDOM
Наличие сканов в содержимом раздачи: да
01. Sixteen Tons Rock'N'Roll
02. My Gall Dottie
03. Granpaw's Cat
04. Barboon Boogie
05. I'm Looking For A Mustard Patch
06. Put Some Meat On Them Bones
07. Here Kitty Kitty
08. Sweet Sweet Lips
09. Electricity
10. Big Mama Blues
11. The First Guitar Of Mine
12. Love That Satisfies
13. Educated Fool
14. Ramblin' Heart
15. We Live A Long, Long Time
16. Mother Where Is Your Daughter Tonight

Exact Audio Copy V1.0 beta 2 from 29. April 2011

EAC extraction logfile from 5. November 2012, 20:57

Jimmy Murphy / Sixteen Tons Rock 'n' Roll

Used drive : _NEC DVD_RW ND-3550A Adapter: 1 ID: 0

Read mode : SecureUtilize accurate stream : YesDefeat audio cache : YesMake use of C2 pointers : No

Read offset correction : 48Overread into Lead-In and Lead-Out : NoFill up missing offset samples with silence : YesDelete leading and trailing silent blocks : NoNull samples used in CRC calculations : YesUsed interface : Native Win32 interface for Win NT & 2000

Used output format : User Defined EncoderSelected bitrate : 768 kBit/sQuality : HighAdd ID3 tag : NoCommand line compressor : C:\Program Files\Exact Audio Copy\FLAC\FLAC.EXEAdditional command line options : -6 -V -T "ARTIST=%artist%" -T "TITLE=%title%" -T "ALBUM=%albumtitle%" -T "DATE=%year%" -T "TRACKNUMBER=%tracknr%" -T "GENRE=%genre%" -T "COMMENT=%comment%" -T "BAND=%albuminterpret%" -T "COMPOSER=%composer%" %haslyrics%--ta

TOC of the extracted CD

Track | Start | Length | Start sector | End sector --------------------------------------------------------- 1 | 0:00.00 | 2:13.30 | 0 | 10004 2 | 2:13.30 | 2:05.12 | 10005 | 19391 3 | 4:18.42 | 2:30.30 | 19392 | 30671 4 | 6:48.72 | 1:57.03 | 30672 | 39449 5 | 8:46.00 | 2:04.57 | 39450 | 48806 6 | 10:50.57 | 2:16.73 | 48807 | 59079 7 | 13:07.55 | 2:11.32 | 59080 | 68936 8 | 15:19.12 | 2:19.25 | 68937 | 79386 9 | 17:38.37 | 2:23.50 | 79387 | 90161 10 | 20:02.12 | 2:20.25 | 90162 | 100686 11 | 22:22.37 | 2:26.45 | 100687 | 111681 12 | 24:49.07 | 2:07.23 | 111682 | 121229 13 | 26:56.30 | 2:17.20 | 121230 | 131524 14 | 29:13.50 | 2:13.72 | 131525 | 141571 15 | 31:27.47 | 2:26.08 | 141572 | 152529 16 | 33:53.55 | 2:47.25 | 152530 | 165079

Range status and errors

Selected range

Filename D:\Muzika\Jimmy Murphy - Sixteen Tons Rock 'n' Roll (1989)\Jimmy Murphy - Sixteen Tons Rock 'n' Roll.wav

Peak level 94.8 % Extraction speed 4.4 X Range quality 100.0 % Test CRC 25783AEA Copy CRC 25783AEA Copy OK

No errors occurred

AccurateRip summary

Track 1 not present in databaseTrack 2 not present in databaseTrack 3 not present in databaseTrack 4 not present in databaseTrack 5 not present in databaseTrack 6 not present in databaseTrack 7 not present in databaseTrack 8 not present in databaseTrack 9 not present in databaseTrack 10 not present in databaseTrack 11 not present in databaseTrack 12 not present in databaseTrack 13 not present in databaseTrack 14 not present in databaseTrack 15 not present in databaseTrack 16 not present in database

None of the tracks are present in the AccurateRip database

End of status report

==== Log checksum E2CD3F1D4AC2D226B630564F85CA3448DE99035C23EFFE79DB92628BD144F4B5 ====


Трекер:  [ 11-Ноя-2012 19:17 ]

  

Скачать .torrent

Размер .torrent файла 14 KB


Размер: 176 MB
Хэш (hash) релиза: 9132bbd5f7b3eaf76094e805162ba731fb32161c

Еще никто не оставлял запись к записи скачать торрент Jimmy Murphy - Sixteen Tons Rock n Roll 51-56 - 1989, FLAC . Будь первым!

!Обратная связь