Скачать через торрент музыку Backseat Romeo - Backseat Romeo - 1993, APE бесплатно без регистрации torrent

Если у вас наблюдаются проблемы со скриншотами, переходом по ссылками, скачиванием торрентов - проблемы в блокировщике рекламы AdBlock. #хорошегоДня!


Статистика раздачи
Размер:  357 MB   |    Зарегистрирован:  4 года 9 месяцев   |    .torrent скачан:  7 раз   |   
Раздают:  1  
   
Загрузка...
 
Автор Сообщение

Galfimbul

avatar Galfimbul


Backseat Romeo / Backseat Romeo

Жанр: hard rock
Страна-производитель диска: USA
Год издания: 1993
Издатель (лейбл): Ice Productions
Номер по каталогу: BS-1001
Страна: USA
Аудиокодек: APE (*.ape)
Тип рипа: image+.cue
Битрейт аудио: lossless
Источник (релизер): свой рипъ
Наличие сканов в содержимом раздачи: нет
Треклист:

01. Shoot 'em Up
02. Gunshy
03. Keeps You Rockin'
04. Up All Night
05. Dreamchaser
06. Waiting On An Angel
07. Running Wild
08. Got It Good
09. Sight For Sore Eyes
10. Bad Boyz
11. Big Trouble
12. You Want What I Got
13. Dead End Street
Exact Audio Copy V0.99 prebeta 4 from 23. January 2008

EAC extraction logfile from 5. November 2012, 19:20

Backseat Romeo / Backseat Romeo

Used drive : PIONEER DVD-RW DVR-212 Adapter: 5 ID: 0

Read mode : SecureUtilize accurate stream : YesDefeat audio cache : YesMake use of C2 pointers : No

Read offset correction : 48Overread into Lead-In and Lead-Out : NoFill up missing offset samples with silence : YesDelete leading and trailing silent blocks : NoNull samples used in CRC calculations : YesUsed interface : Native Win32 interface for Win NT & 2000

Used output format : Internal WAV RoutinesSample format : 44.100 Hz; 16 Bit; Stereo

TOC of the extracted CD

Track | Start | Length | Start sector | End sector --------------------------------------------------------- 1 | 0:00.00 | 3:54.32 | 0 | 17581 2 | 3:54.32 | 4:20.23 | 17582 | 37104 3 | 8:14.55 | 3:22.47 | 37105 | 52301 4 | 11:37.27 | 3:17.45 | 52302 | 67121 5 | 14:54.72 | 5:15.68 | 67122 | 90814 6 | 20:10.65 | 5:27.40 | 90815 | 115379 7 | 25:38.30 | 3:42.25 | 115380 | 132054 8 | 29:20.55 | 3:35.12 | 132055 | 148191 9 | 32:55.67 | 3:19.68 | 148192 | 163184 10 | 36:15.60 | 3:57.00 | 163185 | 180959 11 | 40:12.60 | 4:37.55 | 180960 | 201789 12 | 44:50.40 | 3:39.17 | 201790 | 218231 13 | 48:29.57 | 2:42.25 | 218232 | 230406

Range status and errors

Selected range

Filename D:\temp\Backseat Romeo - Backseat Romeo.wav

Peak level 100.0 % Range quality 100.0 % Copy CRC 91E1197B Copy OK

No errors occurred

AccurateRip summary

Track 1 not present in databaseTrack 2 not present in databaseTrack 3 not present in databaseTrack 4 not present in databaseTrack 5 not present in databaseTrack 6 not present in databaseTrack 7 not present in databaseTrack 8 not present in databaseTrack 9 not present in databaseTrack 10 not present in databaseTrack 11 not present in databaseTrack 12 not present in databaseTrack 13 not present in database

None of the tracks are present in the AccurateRip database

End of status report


Трекер:  [ 11-Ноя-2012 19:17 ]

  

Скачать .torrent

Размер .torrent файла 29 KB


Размер: 357 MB
Хэш (hash) релиза: 1570e4c8658cd035d9ce612ad267b0e11b419710

Еще никто не оставлял запись к записи скачать торрент Backseat Romeo - Backseat Romeo - 1993, APE . Будь первым!

!Обратная связь