Скачать через торрент Чёрный рыцарь Black Knight Фильм бесплатно в хорошем качестве torrent

Скачивайте на UnionPeer.org фильмы через торрент без регистрации. Новинки кино в хорошем качестве через торрент. На UnionPeer.org можно скачать через торрент фильмы 2014 и 2015 годов. Самые новые фильмы.

Скачать торрент Чёрный рыцарь Black Knight бесплатно через .torrent фильм мультфильм сериал

Если у вас наблюдаются проблемы со скриншотами, переходом по ссылками, скачиванием торрентов - проблемы в блокировщике рекламы AdBlock. #хорошегоДня!


Статистика раздачи
Размер:  618 MB   |    Зарегистрирован:  4 года 9 месяцев   |    .torrent скачан:  119 раз   |   
Раздают:  1  
   
Загрузка...
 
Автор Сообщение

Galfimbul

avatar Galfimbul


Чёрный рыцарь / Black Knight
Оригинальное название: Black Knight
Год выпуска: 2001 г.
Страна: США
Жанр: комедия, приключения, фэнтези
Продолжительность: 01:35:35
Перевод:

Профессиональный (многоголосый закадровый)
Авторский (одноголосый закадровый) С. Визгунов

Cубтитры: нет
Режиссер: Джил Джангер / Gil Junger

В ролях: Мартин Лоуренс, Марша Томасон, Том Уилкинсон, Винсент Риган, Майкл Кантримэн, Кевин Конуэй, Джаннетт Вигар, Эрик Дженсен, Майкл Берджесс, Изабелл Монк, Кевин Стиллвелл
Описание: Был обычный летний день. Джамал, как обычно, чистил ров в городском парке развлечений «Средневековый мир». Но судьба уже готовила ему самое веселое и безумное приключение в его жизни…
Случайно перевернувшись через перила моста, Джамал падает в воду и выныривает в Средневековой Англии! Принятый за посла из Нормандии из-за странной одежды и манеры говорить, он знакомится с очаровательной заговорщицей, которая хочет свергнуть короля-тирана.
Затянутый в заговор, Джамал между делом планирует открытие сети ресторанов быстрого питания, соблазняет дочку короля и запугивает до смерти всех горожан своими «колдовскими» способностями…
1. запускаем видео файл
2. в любой момент жмём кнопку ( открывается панель управления )
3. там выбираем звуковые параметры
4. жмём кнопку Х ( осуществляется переключение звуковой дорожки, при этом на экране отражается ее номер - 1,2 и т.д. )

* проигрывается на PSP с любой прошивкой *
Качество видео: HDTVRip
Формат: MP4
Видео кодек: H.264
Аудио кодек: AAC
Видео: 480x272 (16:9), 23.976 fps, x264 ~640 kbps avg, 0.204 bit/pixel
Аудио 1: AAC-LC VBR 2 channels, 48.0 KHz ~128 Kbps Профессиональный (многоголосый закадровый)
Аудио 2: AAC-LC VBR 2 channels, 48.0 KHz ~128 Kbps Авторский (одноголосый закадровый) С. Визгунов
d:\Фильмы\PSP\Комедии\Black Knight (2001)\Black Knight (2001).mp4
  General
    Complete name : d:\Фильмы\PSP\Комедии\Black Knight (2001)\Black Knight (2001).mp4
    Format : MPEG-4
    Format profile : Base Media
    Codec ID : isom
    File size : 618 MiB
    Duration : 1h 35mn
    Overall bit rate : 904 Kbps
    Writing application : XviD4PSP 6.0 / 54.29.105
  Video #1
    ID : 1
    Format : AVC
    Format/Info : Advanced Video Codec
    Format profile : <a href="mailto:Main@L3.0" class="postLink">Main@L3.0</a>
    Format settings, CABAC : Yes
    Format settings, ReFrames : 3 frames
    Codec ID : avc1
    Codec ID/Info : Advanced Video Coding
    Duration : 1h 35mn
    Bit rate : 640 Kbps
    Width : 480 pixels
    Height : 272 pixels
    Display aspect ratio : 16:9
    Frame rate mode : Constant
    Frame rate : 23.976 fps
    Color space : YUV
    Chroma subsampling : 4:2:0
    Bit depth : 8 bits
    Scan type : Progressive
    Bits/(Pixel*Frame) : 0.204
    Stream size : 437 MiB (71%)
    Writing library : x264 core 125 r2200 999b753
    Encoding settings : cabac=1 / ref=3 / deblock=1:-1:-1 / analyse=0x1:0x131 / me=umh / subme=10 / psy=1 / psy_rd=1.00:0.20 / mixed_ref=1 / me_range=32 / chroma_me=1 / trellis=2 / 8x8dct=0 / cqm=0 / deadzone=21,11 / fast_pskip=0 / chroma_qp_offset=-3 / threads=3 / lookahead_threads=1 / sliced_threads=0 / nr=0 / decimate=0 / interlaced=0 / bluray_compat=0 / constrained_intra=0 / bframes=3 / b_pyramid=0 / b_adapt=2 / b_bias=0 / direct=3 / weightb=1 / open_gop=0 / weightp=2 / keyint=250 / keyint_min=23 / scenecut=40 / intra_refresh=0 / rc=2pass / mbtree=0 / bitrate=640 / ratetol=1.0 / qcomp=0.60 / qpmin=0 / qpmax=69 / qpstep=4 / cplxblur=20.0 / qblur=0.5 / ip_ratio=1.40 / pb_ratio=1.30 / aq=1:1.00
  Audio #2
    ID : 2
    Format : AAC
    Format/Info : Advanced Audio Codec
    Format profile : LC
    Codec ID : 40
    Duration : 1h 35mn
    Bit rate mode : Constant
    Bit rate : 128 Kbps
    Channel(s) : 2 channels
    Channel positions : Front: L R
    Sampling rate : 48.0 KHz
    Compression mode : Lossy
    Stream size : 87.5 MiB (14%)
  Audio #3
    ID : 3
    Format : AAC
    Format/Info : Advanced Audio Codec
    Format profile : LC
    Codec ID : 40
    Duration : 1h 35mn
    Bit rate mode : Constant
    Bit rate : 128 Kbps
    Channel(s) : 2 channels
    Channel positions : Front: L R
    Sampling rate : 48.0 KHz
    Compression mode : Lossy
    Stream size : 87.5 MiB (14%)


Трекер:  [ 05-Ноя-2012 17:10 ]

  

Скачать .torrent

Размер .torrent файла 12 KB


Размер: 618 MB
Хэш (hash) релиза: c123d6452167ae851f6d97ed98ee6fd43ffc40d1
Подписка на обновления:

Торренты, похожие на Чёрный рыцарь Black Knight скачать торрент

Форум Название Автор Размер S L Добавлен
Зарубежные фильмы до 2016 ·· Черный рыцарь / Black Knight (Джил Джангер /Gil Junger) [2001, Комедия, Приключения, Фэнтази, DVDRip] Galfimbul 735342592701 MB 0 0 1495371549

15:59

21-Май-17

Зарубежные фильмы до 2016 ·· Черный рыцарь / Black Knight (Джил Джангер / Gil Junger) [2001, США, фэнтези, комедия, приключения, BDRip] MVO (Лазер Видео) + Original Galfimbul 15630622721.46 GB 0 0 1454769119

17:31

6-Фев-16

Зарубежные фильмы до 2016 ·· Чёрный рыцарь / Black knight (Джил Джангер / Gil Junger) [2001, США, фэнтези, комедия, приключения, BDRip-AVC] MVO + Subs (Rus, Eng) Galfimbul 780607759744 MB 0 0 1409055472

15:17

26-Авг-14

Зарубежные фильмы до 2016 ·· Чёрный рыцарь / Black knight (Джил Джангер / Gil Junger) [2001 г., фэнтези, комедия, приключения, DVDRip] bond53364 15576476161.45 GB 0 0 1292604307

19:45

17-Дек-10

Мультсериалы ·· Рыцари Марвел. Черная Пантера / Marvel Knights. Black Panther / Сезон: 1 / Серии: 1-12 из 12 (Марк Брукс / Mark Brooks) [2010 г., анимационный комикс, фантастика, DVD9 (Custom) R1] DUB, ENG + Rus sub Galfimbul 56418222085.25 GB 0 0 1452692345

16:39

13-Янв-16

Мультсериалы ·· Рыцари Марвел: Черная Пантера / Marvel Knights: Black Panther / Сезон: 1 / Серии: 6 (6) (Марк Брукс / Mark Brooks, Джон Шнепп / Jon Schnepp) [2009, экшн, приключения, фантастика, WEB-DLRip] rus sub L 13987187091.3 GB 0 0 1346778720

20:12

4-Сен-12

Еще никто не оставлял запись к записи скачать торрент Чёрный рыцарь Black Knight . Будь первым!

!Обратная связь