Скачать через торрент Чего хотят женщины What Women Want Фильм бесплатно в хорошем качестве torrent

Скачивайте на UnionPeer.org фильмы через торрент без регистрации. Новинки кино в хорошем качестве через торрент. На UnionPeer.org можно скачать через торрент фильмы 2014 и 2015 годов. Самые новые фильмы.

Скачать торрент Чего хотят женщины What Women Want бесплатно через .torrent фильм мультфильм сериал

Если у вас наблюдаются проблемы со скриншотами, переходом по ссылками, скачиванием торрентов - проблемы в блокировщике рекламы AdBlock. #хорошегоДня!


Статистика раздачи
Размер:  1.03 GB   |    Зарегистрирован:  5 лет   |    .torrent скачан:  109 раз   |   
Раздают:  1  
   
Загрузка...
 
Автор Сообщение

Galfimbul

avatar Galfimbul


Чего хотят женщины / What Women Want
Оригинальное название: What Women Want
Год выпуска: 2000 г.
Страна: США
Жанр: романтическая комедия
Продолжительность: 02:06:39
Перевод:

Профессиональный (полное дублирование) Tycoon
Профессиональный (многолосый закадровый) Позитив-Мультимедиа
Авторский (одноголосый закадровый) С. Визгунов
Авторский (одноголосый закадровый) Ю. Живов

Cубтитры: нет
Режиссер: Нэнси Мейерс /Nancy Meyers

В ролях: Мэл Гибсон, Хелен Хант, Мариса Томей, Алан Алда, Эшли Джонсон, Марк Фюрштейн, Лоурен Холли, Дельта Бурк, Валери Перрин, Джуди Грир
Описание: Сексапильный Ник Маршал – плейбой из Чикаго, считающий себя просто божьим подарком женскому населению планеты. Он находится на пике карьеры в одном из ведущих рекламных агентств и должен получить дальнейшее продвижение по службе… или должен был. Глава агентства считает, что женщина лучше понимает рынок женских товаров. И вскоре в агентстве появляется очень талантливый эксперт и очаровательная женщина Дарси Макгуайр, которая становится руководителем Ника. Во время домашней проработки первого задания новой начальницы с Ником происходит несчастный случай, после которого он открывает в себе уникальный дар: он может читать женские мысли. Эта способность сначала доводит Ника до полного отчаяния, а затем открывает шанс, читая мысли Дарси и выдавая их за свои, наконец вернуть себе утраченные позиции в агентстве. И когда реализация коварного плана была в полном разгаре, одно непредвиденное обстоятельство свело все на нет. Имя этому обстоятельству – любовь...
1. запускаем видео файл
2. в любой момент жмём кнопку ( открывается панель управления )
3. там выбираем звуковые параметры
4. жмём кнопку Х ( осуществляется переключение звуковой дорожки, при этом на экране отражается ее номер - 1,2 и т.д. )

* проигрывается на PSP с любой прошивкой *
Качество видео: BDRip
Формат: MP4
Видео кодек: H.264
Аудио кодек: AAC
Видео: 480x272 (16:9), 23.976 fps, x264 ~640 kbps avg, 0.204 bit/pixel
Аудио 1: AAC-LC VBR 2 channels, 48.0 KHz ~128 Kbps Профессиональный (полное дублирование) Tycoon
Аудио 2: AAC-LC VBR 2 channels, 48.0 KHz ~128 Kbps Профессиональный (многоголосый закадровый) Позитив-Мультимедиа
Аудио 3: AAC-LC VBR 2 channels, 48.0 KHz ~128 Kbps Авторский (одноголосый закадровый) С. Визгунов
Аудио 4: AAC-LC VBR 2 channels, 48.0 KHz ~128 Kbps Авторский (одноголосый закадровый) Ю. Живов
d:\Фильмы\PSP\Комедии\What Women Want (2000)\What Women Want (2000).mp4
  General
    Complete name : d:\Фильмы\PSP\Комедии\What Women Want (2000)\What Women Want (2000).mp4
    Format : MPEG-4
    Format profile : Base Media
    Codec ID : isom
    File size : 1.03 GiB
    Duration : 2h 6mn
    Overall bit rate : 1 166 Kbps
    Writing application : XviD4PSP 6.0 / 54.29.105
  Video #1
    ID : 1
    Format : AVC
    Format/Info : Advanced Video Codec
    Format profile : <a href="mailto:Main@L3.0" class="postLink">Main@L3.0</a>
    Format settings, CABAC : Yes
    Format settings, ReFrames : 3 frames
    Codec ID : avc1
    Codec ID/Info : Advanced Video Coding
    Duration : 2h 6mn
    Bit rate : 640 Kbps
    Width : 480 pixels
    Height : 272 pixels
    Display aspect ratio : 16:9
    Frame rate mode : Constant
    Frame rate : 23.976 fps
    Color space : YUV
    Chroma subsampling : 4:2:0
    Bit depth : 8 bits
    Scan type : Progressive
    Bits/(Pixel*Frame) : 0.204
    Stream size : 580 MiB (55%)
    Writing library : x264 core 125 r2208 d9d2288
    Encoding settings : cabac=1 / ref=3 / deblock=1:-2:-1 / analyse=0x1:0x131 / me=umh / subme=10 / psy=1 / psy_rd=1.00:0.20 / mixed_ref=1 / me_range=32 / chroma_me=1 / trellis=2 / 8x8dct=0 / cqm=0 / deadzone=21,11 / fast_pskip=0 / chroma_qp_offset=-3 / threads=3 / lookahead_threads=1 / sliced_threads=0 / nr=0 / decimate=0 / interlaced=0 / bluray_compat=0 / constrained_intra=0 / bframes=3 / b_pyramid=0 / b_adapt=2 / b_bias=0 / direct=3 / weightb=1 / open_gop=0 / weightp=2 / keyint=250 / keyint_min=23 / scenecut=40 / intra_refresh=0 / rc=2pass / mbtree=0 / bitrate=640 / ratetol=1.0 / qcomp=0.60 / qpmin=0 / qpmax=69 / qpstep=4 / cplxblur=20.0 / qblur=0.5 / ip_ratio=1.40 / pb_ratio=1.30 / aq=1:1.00
  Audio #2
    ID : 2
    Format : AAC
    Format/Info : Advanced Audio Codec
    Format profile : LC
    Codec ID : 40
    Duration : 2h 6mn
    Bit rate mode : Constant
    Bit rate : 128 Kbps
    Channel(s) : 2 channels
    Channel positions : Front: L R
    Sampling rate : 48.0 KHz
    Compression mode : Lossy
    Stream size : 116 MiB (11%)
  Audio #3
    ID : 3
    Format : AAC
    Format/Info : Advanced Audio Codec
    Format profile : LC
    Codec ID : 40
    Duration : 2h 6mn
    Bit rate mode : Constant
    Bit rate : 128 Kbps
    Channel(s) : 2 channels
    Channel positions : Front: L R
    Sampling rate : 48.0 KHz
    Compression mode : Lossy
    Stream size : 116 MiB (11%)
  Audio #4
    ID : 4
    Format : AAC
    Format/Info : Advanced Audio Codec
    Format profile : LC
    Codec ID : 40
    Duration : 2h 6mn
    Bit rate mode : Constant
    Bit rate : 128 Kbps
    Channel(s) : 2 channels
    Channel positions : Front: L R
    Sampling rate : 48.0 KHz
    Compression mode : Lossy
    Stream size : 116 MiB (11%)
  Audio #5
    ID : 5
    Format : AAC
    Format/Info : Advanced Audio Codec
    Format profile : LC
    Codec ID : 40
    Duration : 2h 6mn
    Bit rate mode : Constant
    Bit rate : 128 Kbps
    Channel(s) : 2 channels
    Channel positions : Front: L R
    Sampling rate : 48.0 KHz
    Compression mode : Lossy
    Stream size : 116 MiB (11%)
x264.exe: --pass 2 --bitrate 640 --preset medium --level 3.0 --deblock -2:-1 --merange 32 --direct auto --b-adapt 2 --b-pyramid none --trellis 2 --no-fast-pskip --no-dct-decimate --psy-rd 1.00:0.20 --partitions p8x8,b8x8,i4x4,p4x4 --no-8x8dct --subme 10 --me umh --no-mbtree --sar 1:1 --stats "D:\What Women Want.2000.BD.Remux.1080p.log" --output "D:\What Women Want.2000.BD.Remux.1080p.mp4" "D:\Temp\0038.avs"

avs [info]: 480x272p 1:1 @ 24000/1001 fps (cfr)
x264 [info]: using SAR=1/1
x264 [info]: using cpu capabilities: MMX2 SSE2Fast SSSE3 Cache64
x264 [info]: profile Main, level 3.0

x264 [info]: frame I:1986  Avg QP:15.49  size: 22043
x264 [info]: frame P:67259 Avg QP:18.94  size:  6060
x264 [info]: frame B:112968 Avg QP:20.49  size:  1385
x264 [info]: consecutive B-frames:  3.4% 23.6% 54.3% 18.7%
x264 [info]: mb I  I16..4: 18.1%  0.0% 81.9%
x264 [info]: mb P  I16..4:  1.9%  0.0%  5.8%  P16..4: 36.2% 24.8% 22.1%  3.1%  1.2%    skip: 4.9%
x264 [info]: mb B  I16..4:  0.1%  0.0%  0.4%  B16..8: 32.5% 11.4%  3.4%  direct: 5.0%  skip:47.2%  L0:32.4% L1:40.6% BI:26.9%
x264 [info]: direct mvs  spatial:96.7% temporal:3.3%
x264 [info]: coded y,uvDC,uvAC intra: 93.8% 90.2% 77.4% inter: 27.0% 19.7% 12.6%
x264 [info]: i16 v,h,dc,p: 25% 10% 25% 40%
x264 [info]: i4 v,h,dc,ddl,ddr,vr,hd,vl,hu: 14%  9%  4%  9% 13% 14% 12% 13% 13%
x264 [info]: i8c dc,h,v,p: 45% 19% 22% 13%
x264 [info]: Weighted P-Frames: Y:4.4% UV:1.3%
x264 [info]: ref P L0: 64.0% 14.7% 14.5%  6.6%  0.2%
x264 [info]: ref B L0: 83.5% 16.5%
x264 [info]: kb/s:639.91

x264 [total]: encoded 182213 frames, 13.56 fps, 639.91 kb/s
x264 [info]: final ratefactor: 18.03


Трекер:  [ 05-Ноя-2012 17:09 ]

  

Скачать .torrent

Размер .torrent файла 11 KB


Размер: 1.03 GB
Хэш (hash) релиза: 135b32aea8330dc72af8d76862a6d003b975b7cd
Подписка на обновления:

Торренты, похожие на Чего хотят женщины What Women Want скачать торрент

Форум Название Автор Размер S L Добавлен
Зарубежные фильмы до 2016 ·· Чего хотят женщины / What Women Want (Нэнси Майерс / Nancy Meyers) [1080p] [2000, Комедия, мелодрама, BDRemux] Galfimbul 2060286757519.19 GB 0 0 1499710506

21:15

10-Июл-17

Зарубежные фильмы до 2016 ·· Чего хотят женщины / What Women Want (Нэнси Майерс / Nancy Meyers) [1080p] [2000, Комедия, мелодрама, BDRip] Galfimbul 93917654078.75 GB 0 0 1497281648

18:34

12-Июн-17

Зарубежные фильмы до 2016 ·· Чего хотят женщины / What Women Want ( Нэнси Мейерс / Nancy Meyers ) [2000, США, фантастика, комедия, мелодрама, BDRip] DUB Galfimbul 15645921281.46 GB 0 0 1365329104

13:05

7-Апр-13

Зарубежные фильмы до 2016 ·· Чего хотят женщины / What Women Want (Нэнси Майерс / Nancy Meyers) [2000, комедия, мелодрама, BDRip-AVC] Dub + Original (Eng) + Sub (Rus, Eng) Galfimbul 23384625502.18 GB 0 0 1365328313

12:51

7-Апр-13

Зарубежные фильмы до 2016 ·· Чего хотят женщины / What Women Want (Нэнси Мейерс / Nancy Meyers) [2000, США, фантастика, комедия, мелодрама, BDRip] DUB + MVO + 2x AVO ( Визгунов + Живов ) + original eng + 2х Sub rus Galfimbul 40565199063.78 GB 0 0 1365325854

12:10

7-Апр-13

Зарубежные фильмы до 2016 ·· Чего хотят женщины? / What Women Want? (Дамин Чэнь / Daming Chen) [2011, Китай, романтика, комедия, BDRip] Sub rus L 15629930261.46 GB 0 0 1310749950

20:12

15-Июл-11

Зарубежные фильмы до 2016 ·· Чего хотят женщины / What Women Want (Нэнси Майерс / Nancy Meyers) [2000, комедия, мелодрама, BDRip-AVC] Dub + MVO + AVO (Визгунов) + Original + Com + Subs (Rus, Eng) sebladec 46663226534.35 GB 0 0 1298387242

18:07

22-Фев-11

Зарубежные фильмы до 2016 ·· Чего хотят женщины / What Women Want (Нэнси Майерс / Nancy Meyers) [1080p] [2000 г., Комедия, мелодрама, BD Remux] sebladec 2060286757519.19 GB 0 0 1298387133

18:05

22-Фев-11

Зарубежные фильмы до 2016 ·· Чего хотят женщины / What Women Want (Нэнси Майерс / Nancy Meyers) [1080p] [2000 г., Комедия, мелодрама, Blu-Ray] sebladec 2317104203421.58 GB 0 0 1298387070

18:04

22-Фев-11

Зарубежные фильмы до 2016 ·· Чего хотят женщины / What Women Want (Нэнси Мейерс) [2000 г., фэнтези, мелодрама, комедия, BDRip 720р] dante_2120 85452348387.96 GB 0 0 1298367236

12:33

22-Фев-11

Зарубежные фильмы до 2016 ·· Чего хотят женщины / What Women Want (Нэнси Майерс / Nancy Meyers) [2000 г., фэнтези, комедия, мелодрама, HDRip-AVC] mikxtor 23375177952.18 GB 0 0 1290622303

21:11

24-Ноя-10

Зарубежные фильмы до 2016 ·· Чего хотят женщины / What Women Want (Нэнси Мейерс / Nancy Meyers) (дубляж!) [2000 г., комедия, DVDRip] MrDjo 728014848694 MB 0 0 1290622269

21:11

24-Ноя-10

Зарубежные фильмы до 2016 ·· Чего хотят женщины / What Women Want ( Нэнси Мейерс / Nancy Meyers ) [2000, США, фантастика, комедия, мелодрама, HDRip] DUB sebladec 15713075201.46 GB 0 0 1290621826

21:03

24-Ноя-10

Еще никто не оставлял запись к записи скачать торрент Чего хотят женщины What Women Want . Будь первым!

!Обратная связь