Скачать через торрент музыку Presto Ballet - Love What Youve Done with the Place бесплатно без регистрации torrent

Если у вас наблюдаются проблемы со скриншотами, переходом по ссылками, скачиванием торрентов - проблемы в блокировщике рекламы AdBlock. #хорошегоДня!


Статистика раздачи
Размер:  287 MB   |    Зарегистрирован:  4 года 9 месяцев   |    .torrent скачан:  12 раз   |   
Раздают:  1  
   
Загрузка...
 
Автор Сообщение

Galfimbul

avatar Galfimbul


Presto Ballet - Love What You've Done with the Place

Жанр: Crossover Prog
Год выпуска диска: 2011
Страна: USA
Label: Bjdy Of Work Records
Catalog Nr.: BOW EP1004
Аудио кодек: FLAC
Тип рипа: image+.cue (test&copy)
Битрейт аудио: lossless
Продолжительность: 40:41
Источник: свой рип


Трэклист:

1. King of the Stars (9:55)
2. The Clock (8:00)
3. A Distant Heart (5:40)
4. Deep Black Blue (5:25)
5. Looking Glass (4:33)
bonus track:
6. The Faith Healer (7:08)

Total Time: 40:41

Музыканты:
- Kurdt Vanderhoof / Guitars, additional keys
- Ronny Munroe / Vocals
- Kerry Shacklett / Keyboards, backing vocals
- Bobby Ferkovich / Bass, backing vocals
- Jeffrey McCormack / Drums

Об альбоме: Очень интересный (имхо) альбом известной группы, вышедший ещё в прошлом году в формате ЕР.
Поскольку до сих пор никто его не купил, чтоб поделиться с другими, пришлось озаботиться этим вопросом, ибо являюсь большим любителем творчества г-на Вандерхуфа и его проекта.
Exact Audio Copy V1.0 beta 3 from 29. August 2011

EAC extraction logfile from 8. October 2012, 23:17

Presto Ballet / Love What You've Done with the Place (EP)

Used drive : TEAC CD-W516EB Adapter: 0 ID: 0

Read mode : Secure
Utilize accurate stream : Yes
Defeat audio cache : Yes
Make use of C2 pointers : No

Read offset correction : 685
Overread into Lead-In and Lead-Out : No
Fill up missing offset samples with silence : Yes
Delete leading and trailing silent blocks : No
Null samples used in CRC calculations : Yes
Used interface : Native Win32 interface for Win NT & 2000

Used output format : User Defined Encoder
Selected bitrate : 1024 kBit/s
Quality : High
Add ID3 tag : Yes
Command line compressor : C:\Program Files (x86)\FLAC\flac.exe
Additional command line options : -6 -V -T "ARTIST=%artist%" -T "TITLE=%title%" -T "ALBUM=%albumtitle%" -T "DATE=%year%" -T "TRACKNUMBER=%tracknr%" -T "GENRE=%genre%" -T "COMMENT=%comment%" %source% -o %dest%

TOC of the extracted CD

Track | Start | Length | Start sector | End sector
---------------------------------------------------------
1 | 0:00.00 | 9:54.62 | 0 | 44611
2 | 9:54.62 | 8:00.12 | 44612 | 80623
3 | 17:54.74 | 5:40.21 | 80624 | 106144
4 | 23:35.20 | 5:24.53 | 106145 | 130497
5 | 28:59.73 | 4:33.08 | 130498 | 150980
6 | 33:33.06 | 7:07.63 | 150981 | 183068

Range status and errors

Selected range

Filename Y:\EAC\wurensh\Presto Ballet\Presto Ballet - Love What You've Done with the Place (EP).wav

Peak level 100.0 %
Extraction speed 7.2 X
Range quality 100.0 %
Test CRC 64FB0005
Copy CRC 64FB0005
Copy OK

No errors occurred

AccurateRip summary

Track 1 accurately ripped (confidence 2) [8B3D4070] (AR v1)
Track 2 accurately ripped (confidence 2) [E6EDB9DD] (AR v1)
Track 3 accurately ripped (confidence 2) [A1C3C764] (AR v1)
Track 4 accurately ripped (confidence 2) [7A8F26DC] (AR v1)
Track 5 accurately ripped (confidence 2) [081142D5] (AR v1)
Track 6 accurately ripped (confidence 2) [EFC8DDA3] (AR v1)

All tracks accurately ripped

End of status report

---- CUETools DB Plugin V2.1.3

[CTDB TOCID: Bzp8fes.CQs1NGQb5sZf08OiPkQ-] found, Submit result: Bzp8fes.CQs1NGQb5sZf08OiPkQ- has been confirmed
[434fcd20] (2/2) Accurately ripped
Коврики 300dpi в комплекте.
Progarchives info

Трекер:  [ 11-Ноя-2012 19:17 ]

  

Скачать .torrent

Размер .torrent файла 12 KB


Размер: 287 MB
Хэш (hash) релиза: 96221e0cad406ef766ef127062fe9926c2571934

Еще никто не оставлял запись к записи скачать торрент Presto Ballet - Love What Youve Done with the Place . Будь первым!

!Обратная связь