Скачать через торрент музыку Tuff - Religious Fix - 1995, APE бесплатно без регистрации torrent

Если у вас наблюдаются проблемы со скриншотами, переходом по ссылками, скачиванием торрентов - проблемы в блокировщике рекламы AdBlock. #хорошегоДня!


Статистика раздачи
Размер:  372 MB   |    Зарегистрирован:  5 лет   |    .torrent скачан:  10 раз   |   
Раздают:  1  
   
Загрузка...
 
Автор Сообщение

Galfimbul

avatar Galfimbul


Tuff / Religious Fix
Жанр: Hard Rock/Hair Metal
Страна-производитель диска: Germany
Год издания: 1995
Издатель (лейбл): Mausoleum Records
Номер по каталогу: 904167.2
Страна: USA
Аудиокодек: APE (*.ape)
Тип рипа: image+.cue
Битрейт аудио: lossless
Продолжительность: 47:23
Источник (релизер): Свой рип с оригинального CD
Наличие сканов в содержимом раздачи: 300dpi
Tracks:
01. Tied To The Bells
02. Daddy's Money
03. Better Off Dead
04. I Like What I See
05. Sixteen Tons
06. Follow The Loser
07. Rattle My Bones
08. In Dogs We Trust
09. Electric Church
10. God Bless This Mess
11. Simon Says

Personnel:
Jamie Fonte - bass
Steve Rachelle - vocals
Jimi Lord - drums
Jorge DeSaint - guitars

Exact Audio Copy V0.99 prebeta 4 from 23. January 2008

Отчёт EAC об извлечении, выполненном 27. марта 2012, 21:50

Tuff / Religious Fix

Дисковод: ASUS DRW-22B2L b Adapter: 0 ID: 0

Режим чтения : ДостоверностьИспользование точного потока : ДаОтключение кэша аудио : ДаИспользование указателей C2 : Нет

Коррекция смещения при чтении : 6Способность читать области Lead-in и Lead-out : НетЗаполнение пропущенных сэмплов тишиной : ДаУдаление блоков с тишиной в начале и конце : НетПри вычислениях CRC использовались нулевые сэмплы : ДаИнтерфейс : Встроенный Win32-интерфейс для Win NT/2000

Выходной формат : Внутренние WAV-операцииФормат сэмплов : 44.100 Гц; 16 бит; стерео

TOC извлечённого CD

Трек | Старт | Длительность | Начальный сектор | Конечный сектор --------------------------------------------------------------------- 1 | 0:00.00 | 4:44.35 | 0 | 21334 2 | 4:44.35 | 4:35.15 | 21335 | 41974 3 | 9:19.50 | 4:33.07 | 41975 | 62456 4 | 13:52.57 | 4:08.58 | 62457 | 81114 5 | 18:01.40 | 3:38.40 | 81115 | 97504 6 | 21:40.05 | 3:21.30 | 97505 | 112609 7 | 25:01.35 | 2:46.25 | 112610 | 125084 8 | 27:47.60 | 2:25.17 | 125085 | 135976 9 | 30:13.02 | 3:18.70 | 135977 | 150896 10 | 33:31.72 | 4:03.20 | 150897 | 169141 11 | 37:35.17 | 9:48.10 | 169142 | 213251

Характеристики диапазона извлечения и сообщения об ошибках

Выбранный диапазон

Имя файла C:\Documents and Settings\booddoom\Рабочий стол\Новая папка\Tuff - Religious Fix.wav

Пиковый уровень 98.1 % Качество диапазона 100.0 % CRC теста A98E515E CRC копии A98E515E Копирование... OK

Ошибок не произошло

AccurateRip: сводка

Трек 1 точное извлечение (доверие 4) [FB5C2E45]Трек 2 точное извлечение (доверие 4) [F46E6ADF]Трек 3 точное извлечение (доверие 4) [BBCDC471]Трек 4 точное извлечение (доверие 4) [6F6328DF]Трек 5 точное извлечение (доверие 4) [E452AD18]Трек 6 точное извлечение (доверие 4) [4C6D5AA4]Трек 7 точное извлечение (доверие 4) [333CCC09]Трек 8 точное извлечение (доверие 4) [26740ECD]Трек 9 точное извлечение (доверие 4) [8B1985FF]Трек 10 точное извлечение (доверие 4) [E9152954]Трек 11 точное извлечение (доверие 4) [12C599D7]

Все треки извлечены точно

Конец отчёта


Трекер:  [ 11-Ноя-2012 19:17 ]

  

Скачать .torrent

Размер .torrent файла 15 KB


Размер: 372 MB
Хэш (hash) релиза: a36ea70449740d9094effbd8257e54d4aae4613b

Еще никто не оставлял запись к записи скачать торрент Tuff - Religious Fix - 1995, APE . Будь первым!

!Обратная связь