Скачать через торрент музыку Times Up - Snow Queen бесплатно без регистрации torrent

Если у вас наблюдаются проблемы со скриншотами, переходом по ссылками, скачиванием торрентов - проблемы в блокировщике рекламы AdBlock. #хорошегоДня!


Статистика раздачи
Размер:  287 MB   |    Зарегистрирован:  4 года 11 месяцев   |    .torrent скачан:  16 раз   |   
Раздают:  1  
   
Загрузка...
 
Автор Сообщение

Galfimbul

avatar Galfimbul


Times Up - Snow Queen

Жанр: Crossover Prog
Год выпуска диска: 2012
Страна: UK
Label: Geanmist music
Catalog Nr.: GMTU002
Аудио кодек: FLAC
Тип рипа: image+.cue (test&copy)
Битрейт аудио: lossless
Продолжительность: 41:18
Источник: свой рип

Трэклист:

1. Secret Garden (5:56)
2. Nightmare Days (5:08)
3. The Prophet (5:59)
4. Snow Queen (7:58)
5. Spellbound (8:57)
6. Fall of the Queen (7:16)

Total time: 41:18

Музыканты:

- Geoff Smith / vocals, keyboards
- Andy Gibbon / bass
- Mike Hagland / guitars
- Steve Leman / drums

Об альбоме: Дебютный альбом новой британской команды. Очень даже приличный прогрессив. Хоть и далеко не шедевр.
Exact Audio Copy V1.0 beta 3 from 29. August 2011

EAC extraction logfile from 1. November 2012, 16:23

Times Up / Snow Queen

Used drive : ASUS DRW-24B1LT Adapter: 4 ID: 0

Read mode : Secure
Utilize accurate stream : Yes
Defeat audio cache : Yes
Make use of C2 pointers : No

Read offset correction : 6
Overread into Lead-In and Lead-Out : No
Fill up missing offset samples with silence : Yes
Delete leading and trailing silent blocks : No
Null samples used in CRC calculations : Yes
Used interface : Native Win32 interface for Win NT & 2000

Used output format : User Defined Encoder
Selected bitrate : 1024 kBit/s
Quality : High
Add ID3 tag : Yes
Command line compressor : C:\Program Files (x86)\FLAC\flac.exe
Additional command line options : -6 -V -T "ARTIST=%artist%" -T "TITLE=%title%" -T "ALBUM=%albumtitle%" -T "DATE=%year%" -T "TRACKNUMBER=%tracknr%" -T "GENRE=%genre%" -T "COMMENT=%comment%" %source% -o %dest%

TOC of the extracted CD

Track | Start | Length | Start sector | End sector
---------------------------------------------------------
1 | 0:00.00 | 5:55.63 | 0 | 26687
2 | 5:55.63 | 5:07.43 | 26688 | 49755
3 | 11:03.31 | 5:58.55 | 49756 | 76660
4 | 17:02.11 | 7:57.52 | 76661 | 112487
5 | 24:59.63 | 8:56.53 | 112488 | 152740
6 | 33:56.41 | 7:21.34 | 152741 | 185849

Range status and errors

Selected range

Filename Y:\EAC\wurensh\Times Up\Times Up - Snow Queen.wav

Peak level 98.4 %
Extraction speed 3.2 X
Range quality 100.0 %
Test CRC 9B2A3BDD
Copy CRC 9B2A3BDD
Copy OK

No errors occurred

AccurateRip summary

Track 1 not present in database
Track 2 not present in database
Track 3 not present in database
Track 4 not present in database
Track 5 not present in database
Track 6 not present in database

None of the tracks are present in the AccurateRip database

End of status report
Для интересующихся спектрами, во избежание недоразумений, приведена спектрограмма одного из треков, определившегося как MPEG:
Коврики 300dpi в комплекте.
Progarchives info

Трекер:  [ 11-Ноя-2012 19:17 ]

  

Скачать .torrent

Размер .torrent файла 12 KB


Размер: 287 MB
Хэш (hash) релиза: ade846ddd28db0d60060db029346b9761d8ce12b

Торренты, похожие на Times Up - Snow Queen скачать торрент

Форум Название Автор Размер S L Добавлен
Зарубежный Rock ·· (Neo Progressive) Times Up - Snow Queen - 2012, MP3, 320 kbps Galfimbul 112890316108 MB 0 0 1352121900

16:25

5-Ноя-12

Rосk | Mеtаl | Аltеrnаtivе, Рunk, Indереndеnt (mр3) ·· (Crossover Progressive Rock) Times Up - Collection - 2012-2014 (2 CD: 2012-Snow Queen/2014-Sea Of Schemes) MP3, 320 kbps Galfimbul 220992714211 MB 0 0 1468005987

22:26

8-Июл-16

Еще никто не оставлял запись к записи скачать торрент Times Up - Snow Queen . Будь первым!

!Обратная связь