Скачать через торрент музыку Rival Sons - Head Down - 2012, FLAC бесплатно без регистрации torrent

Если у вас наблюдаются проблемы со скриншотами, переходом по ссылками, скачиванием торрентов - проблемы в блокировщике рекламы AdBlock. #хорошегоДня!


Статистика раздачи
Размер:  409 MB   |    Зарегистрирован:  5 лет   |    .torrent скачан:  14 раз   |   
Раздают:  1  
   
Загрузка...
 
Автор Сообщение

Galfimbul

avatar Galfimbul


Rival Sons / Head Down

Жанр: Hard-Rock/Blues-Rock
Страна-производитель диска: Russia
Год издания: 2012
Издатель (лейбл): Пирато & Бандито
Аудиокодек: FLAC (*.flac)
Тип рипа: image+.cue
Битрейт аудио: lossless
Продолжительность: 56'31''
Источник (релизер): Диск свой, рип свой
Наличие сканов в содержимом раздачи: да
Треклист:
CD: Rival Sons - Head Down

01. Keep On Swinging [0:03:59.71]
02. Wild Animal [0:03:27.15]
03. You Want To [0:04:15.53]
04. Until The Sun Comes [0:02:58.66]
05. Run From Revelation [0:04:14.12]
06. Jordan [0:06:18.16]
07. All The Way [0:05:10.21]
08. The Heist [0:03:13.54]
09. Three Fingers [0:03:17.00]
10. Nava [0:02:01.52]
11. Manifest Destiny Pt.1 [0:08:20.01]
12. Manifest Destiny Pt.2 [0:04:24.38]
13. True [0:04:45.72]
Exact Audio Copy V1.0 beta 3 from 29. August 2011

Отчёт EAC об извлечении, выполненном 31. октября 2012, 14:08

Rival Sons / Head Down

Дисковод: ASUS DRW-22B3S Adapter: 0 ID: 1

Режим чтения : ДостоверностьИспользование точного потока : ДаОтключение кэша аудио : ДаИспользование указателей C2 : Нет

Коррекция смещения при чтении : 6Способность читать области Lead-in и Lead-out : НетЗаполнение пропущенных сэмплов тишиной : ДаУдаление блоков с тишиной в начале и конце : НетПри вычислениях CRC использовались нулевые сэмплы : ДаИнтерфейс : Встроенный Win32-интерфейс для Win NT/2000

Выходной формат : Пользовательский кодировщикВыбранный битрейт : 896 kBit/sКачество : ВысокийДобавление ID3-тега : ДаУтилита сжатия : C:\Program Files\Exact Audio Copy\FLAC\FLAC.EXEДополнительные параметры : -6 -V -T "ARTIST=%artist%" -T "TITLE=%title%" -T "ALBUM=%albumtitle%" -T "DATE=%year%" -T "TRACKNUMBER=%tracknr%" -T "GENRE=%genre%" -T "COMMENT=%comment%" -T "BAND=%albuminterpret%" -T "ALBUMARTIST=%albuminterpret%" -T "COMPOSER=%composer%" %haslyrics%--tag-from-file=LYRICS="%lyricsfile%"%haslyrics% -T "DISCNUMBER=%cdnumber%" -T "TOTALDISCS=%totalcds%" -T "TOTALTRACKS=%numtracks%" %hascover%--picture="%coverfile%"%hascover% %source% -o %dest%

TOC извлечённого CD

Трек | Старт | Длительность | Начальный сектор | Конечный сектор --------------------------------------------------------------------- 1 | 0:00.00 | 3:59.71 | 0 | 17995 2 | 3:59.71 | 3:27.15 | 17996 | 33535 3 | 7:27.11 | 4:15.53 | 33536 | 52713 4 | 11:42.64 | 2:58.66 | 52714 | 66129 5 | 14:41.55 | 4:14.12 | 66130 | 85191 6 | 18:55.67 | 6:18.16 | 85192 | 113557 7 | 25:14.08 | 5:10.21 | 113558 | 136828 8 | 30:24.29 | 3:13.54 | 136829 | 151357 9 | 33:38.08 | 3:17.00 | 151358 | 166132 10 | 36:55.08 | 2:01.52 | 166133 | 175259 11 | 38:56.60 | 8:20.01 | 175260 | 212760 12 | 47:16.61 | 4:24.38 | 212761 | 232598 13 | 51:41.24 | 4:45.72 | 232599 | 254045

Характеристики диапазона извлечения и сообщения об ошибках

Выбранный диапазон

Имя файла C:\Documents and Settings\Admin\Рабочий стол\Rival Sons - Head Down - 2012 - 56'31''\Rival Sons - Head Down.wav

Пиковый уровень 100.0 % Скорость извлечения 3.4 X Качество диапазона 100.0 % CRC теста 8606D61B CRC копии 8606D61B Копирование... OK

Ошибок не произошло

Конец отчёта

==== Контрольная сумма отчёта 6535CBED0FFE23E7DF1995021E10A286BBA914F29B183D76D5444E41ABF7C5E6 ====
-----------------------

DON'T MODIFY THIS FILE

-----------------------

PERFORMER: auCDtect Task Manager, ver. 1.5.1RC4 build 1.5.1.5Copyright (c) 2008-2010 y-soft. All rights reservedhttp://y-soft.org

ANALYZER: auCDtect: CD records authenticity detector, version 0.8.2Copyright (c) 2004 Oleg Berngardt. All rights reserved.Copyright (c) 2004 Alexander Djourik. All rights reserved.

FILE: Rival Sons - Head Down.flac Size: 381294242 Hash: 4A0893264736BA4D18F3014C0927DECA Accuracy: -m0 Conclusion: CDDA 100% Signature: C6ED76AAB25546AB1D7FA5908147BDADFF393043
Доп. информация: Для особо взыскательных блюз-рокеров (по-поводу корректности рипа),
ну, и, так-же для любителей ковров (в комплекте)!
Добро Пожаловать, плиииииз!
внимательно смотрим сканы!


Трекер:  [ 11-Ноя-2012 19:17 ]

  

Скачать .torrent

Размер .torrent файла 17 KB


Размер: 409 MB
Хэш (hash) релиза: aa02b6501c294047f0c8282e6a4508e9107bc645

Еще никто не оставлял запись к записи скачать торрент Rival Sons - Head Down - 2012, FLAC . Будь первым!

!Обратная связь