Скачать через торрент музыку Strangeways - Walk In The Fire - бесплатно без регистрации torrent

Если у вас наблюдаются проблемы со скриншотами, переходом по ссылками, скачиванием торрентов - проблемы в блокировщике рекламы AdBlock. #хорошегоДня!


Статистика раздачи
Размер:  470 MB   |    Зарегистрирован:  5 лет   |    .torrent скачан:  12 раз   |   
Раздают:  1  
   
Загрузка...
 
Автор Сообщение

Galfimbul

avatar Galfimbul


STRANGEWAYS / Walk In The Fire

Жанр: AOR Melodic Hard Rock
Страна-производитель диска: UK
Год издания: 2011
Издатель (лейбл): Rock Candy Records Ltd.
Номер по каталогу: Candy099
Страна: UK
Аудиокодек: FLAC (*.flac)
Тип рипа: image+.cue
Битрейт аудио: lossless
Продолжительность: 01:03:10
Источник (релизер): Zak Stevens
Наличие сканов в содержимом раздачи: да
Треклист:
[b]1. Where Are They Now
2. Danger in Your Eyes
3. Love Lies Dying
4. Every Time You Cry
5. Talk to Me
6. Living in the Dange Zone 4.13:
7. Modern World
8. Into the Night
9. Walk in the Fire
10. After the Hurts Is Gone
Exact Audio Copy V1.0 beta 3 from 29. August 2011

Отчёт EAC об извлечении, выполненном 4. ноября 2012, 13:57

Strangeways / Walk In The Fire

Дисковод: MATSHITADVD-RAM UJ-861H Adapter: 0 ID: 0

Режим чтения : ДостоверностьИспользование точного потока : ДаОтключение кэша аудио : ДаИспользование указателей C2 : Нет

Коррекция смещения при чтении : 102Способность читать области Lead-in и Lead-out : НетЗаполнение пропущенных сэмплов тишиной : ДаУдаление блоков с тишиной в начале и конце : НетПри вычислениях CRC использовались нулевые сэмплы : ДаИнтерфейс : Встроенный Win32-интерфейс для Win NT/2000

Выходной формат : Внутренние WAV-операцииФормат сэмплов : 44.100 Гц; 16 бит; стерео

TOC извлечённого CD

Трек | Старт | Длительность | Начальный сектор | Конечный сектор --------------------------------------------------------------------- 1 | 0:00.00 | 4:51.48 | 0 | 21872 2 | 4:51.48 | 4:26.07 | 21873 | 41829 3 | 9:17.55 | 4:52.26 | 41830 | 63755 4 | 14:10.06 | 4:12.17 | 63756 | 82672 5 | 18:22.23 | 4:48.05 | 82673 | 104277 6 | 23:10.28 | 4:13.33 | 104278 | 123285 7 | 27:23.61 | 4:26.71 | 123286 | 143306 8 | 31:50.57 | 5:07.32 | 143307 | 166363 9 | 36:58.14 | 3:34.11 | 166364 | 182424 10 | 40:32.25 | 4:59.38 | 182425 | 204887 11 | 45:31.63 | 3:46.53 | 204888 | 221890 12 | 49:18.41 | 3:54.46 | 221891 | 239486 13 | 53:13.12 | 4:15.12 | 239487 | 258623 14 | 57:28.24 | 5:42.35 | 258624 | 284308

Характеристики диапазона извлечения и сообщения об ошибках

Выбранный диапазон

Имя файла D:\Исходные торренты\Strangeways - Walk In The Fire.wav

Пиковый уровень 99.6 % Скорость извлечения 2.6 X Качество диапазона 99.9 % CRC теста B304BC54 CRC копии B304BC54 Копирование... OK

Ошибок не произошло

AccurateRip: сводка

Трек 1 : извлечено точно (доверие 2) [AF3613AF] (AR v1)Трек 2 : извлечено точно (доверие 2) [34659B07] (AR v1)Трек 3 : извлечено точно (доверие 2) [3032A2E8] (AR v1)Трек 4 : извлечено точно (доверие 2) [2D29A757] (AR v1)Трек 5 : извлечено точно (доверие 2) [EE4E8FF6] (AR v1)Трек 6 : извлечено точно (доверие 2) [36B58EDB] (AR v1)Трек 7 : извлечено точно (доверие 2) [AE3EB334] (AR v1)Трек 8 : извлечено точно (доверие 2) [74604E6F] (AR v1)Трек 9 : извлечено точно (доверие 2) [720FDB34] (AR v1)Трек 10 : извлечено точно (доверие 2) [8B9E9677] (AR v1)Трек 11 : извлечено точно (доверие 2) [1AAB7835] (AR v1)Трек 12 : извлечено точно (доверие 2) [D467AE87] (AR v1)Трек 13 : извлечено точно (доверие 2) [B84F484E] (AR v1)Трек 14 : извлечено точно (доверие 2) [637C0634] (AR v1)

Все треки извлечены точно

Конец отчёта


Трекер:  [ 11-Ноя-2012 19:17 ]

  

Скачать .torrent

Размер .torrent файла 19 KB


Размер: 470 MB
Хэш (hash) релиза: f9156f2e5a98a7e305437f643c07f4dda2537f3f

Еще никто не оставлял запись к записи скачать торрент Strangeways - Walk In The Fire - . Будь первым!

!Обратная связь