Скачать через торрент музыку YoungBlood - No Retreat - 2012, FLAC бесплатно без регистрации torrent

Если у вас наблюдаются проблемы со скриншотами, переходом по ссылками, скачиванием торрентов - проблемы в блокировщике рекламы AdBlock. #хорошегоДня!


Статистика раздачи
Размер:  530 MB   |    Зарегистрирован:  5 лет   |    .torrent скачан:  12 раз   |   
Раздают:  1  
   
Загрузка...
 
Автор Сообщение

Galfimbul

avatar Galfimbul


YoungBlood / No Retreat

Жанр: Melodic Hard Rock
Страна-производитель диска: Russia
Год издания: 2012
Издатель (лейбл): Piratka
Аудиокодек: FLAC (*.flac)
Тип рипа: image+.cue
Битрейт аудио: lossless
Продолжительность: 56'24''
Источник (релизер): рип свой, диск свой
Наличие сканов в содержимом раздачи: да
Треклист:
CD: YoungBlood - No Retreat

01. Pump It Up [0:03:12.73]
02. Love Is All Around [0:04:34.29]
03. Sock It To Me [0:03:09.09]
04. Get Down To It [0:03:18.57]
05. Shot Of You [0:02:37.20]
06. Heat Of The Passion [0:02:56.19]
07. Save Your Lies [0:02:50.40]
08. Feel Thang [0:03:17.48]
09. Find A Way [0:04:33.31]
10. Taste Of Your Lovin' [0:03:47.55]
11. Back In My Life [0:03:45.34]
12. Coming Home [0:05:22.57]
13. My One And Only [0:03:19.71]
14. Don't Play With My Head [0:03:36.45]
15. You've Got To Go [0:03:24.30]
16. I Love You [0:02:34.66]
Exact Audio Copy V1.0 beta 2 from 29. April 2011

Отчёт EAC об извлечении, выполненном 30. октября 2012, 22:12

YoungBlood / No Retreat

Дисковод: ASUS DRW-24B3ST Adapter: 6 ID: 0

Режим чтения : ДостоверностьИспользование точного потока : ДаОтключение кэша аудио : ДаИспользование указателей C2 : Нет

Коррекция смещения при чтении : 6Способность читать области Lead-in и Lead-out : НетЗаполнение пропущенных сэмплов тишиной : ДаУдаление блоков с тишиной в начале и конце : НетПри вычислениях CRC использовались нулевые сэмплы : ДаИнтерфейс : Установленный внешний ASPI-интерфейс

Выходной формат : Пользовательский кодировщикВыбранный битрейт : 896 kBit/sКачество : ВысокийДобавление ID3-тега : ДаУтилита сжатия : C:\Program Files\Exact Audio Copy\FLAC\FLAC.EXEДополнительные параметры : -6 -V -T "ARTIST=%artist%" -T "TITLE=%title%" -T "ALBUM=%albumtitle%" -T "DATE=%year%" -T "TRACKNUMBER=%tracknr%" -T "GENRE=%genre%" -T "COMMENT=%comment%" -T "BAND=%albuminterpret%" -T "COMPOSER=%composer%" %haslyrics%--tag-from-

TOC извлечённого CD

Трек | Старт | Длительность | Начальный сектор | Конечный сектор --------------------------------------------------------------------- 1 | 0:00.00 | 3:12.73 | 0 | 14472 2 | 3:12.73 | 4:34.29 | 14473 | 35051 3 | 7:47.27 | 3:09.09 | 35052 | 49235 4 | 10:56.36 | 3:18.57 | 49236 | 64142 5 | 14:15.18 | 2:37.20 | 64143 | 75937 6 | 16:52.38 | 2:56.19 | 75938 | 89156 7 | 19:48.57 | 2:50.40 | 89157 | 101946 8 | 22:39.22 | 3:17.48 | 101947 | 116769 9 | 25:56.70 | 4:33.31 | 116770 | 137275 10 | 30:30.26 | 3:47.55 | 137276 | 154355 11 | 34:18.06 | 3:45.34 | 154356 | 171264 12 | 38:03.40 | 5:22.57 | 171265 | 195471 13 | 43:26.22 | 3:19.71 | 195472 | 210467 14 | 46:46.18 | 3:36.45 | 210468 | 226712 15 | 50:22.63 | 3:24.30 | 226713 | 242042 16 | 53:47.18 | 2:34.66 | 242043 | 253658

Характеристики диапазона извлечения и сообщения об ошибках

Выбранный диапазон

Имя файла E:\MY RECORDS\ROCK lossless\YoungBlood - No Retreat - 2012 - 56'24''\YoungBlood - No Retreat.wav

Пиковый уровень 100.0 % Скорость извлечения 6.2 X Качество диапазона 100.0 % CRC теста 84436C90 CRC копии 84436C90 Копирование... OK

Ошибок не произошло

Конец отчёта

==== Контрольная сумма отчёта AA216E8C45C083EDCABF63A2DEBD48D80DF3969123528A14FC4A9F03AE95468F ====
-----------------------

DON'T MODIFY THIS FILE

-----------------------

PERFORMER: auCDtect Task Manager, ver. 1.5.1RC4 build 1.5.1.5Copyright (c) 2008-2010 y-soft. All rights reservedhttp://y-soft.org

ANALYZER: auCDtect: CD records authenticity detector, version 0.8.2Copyright (c) 2004 Oleg Berngardt. All rights reserved.Copyright (c) 2004 Alexander Djourik. All rights reserved.

FILE: YoungBlood - No Retreat.flac Size: 417097370 Hash: A79FA256B13F15DFA6B7D6A73BA8D4C2 Accuracy: -m0 Conclusion: CDDA 100% Signature: A5EB157E2BF5B4725E337FE9397D290AF46730C0


Трекер:  [ 11-Ноя-2012 19:17 ]

  

Скачать .torrent

Размер .torrent файла 11 KB


Размер: 530 MB
Хэш (hash) релиза: 71771f8fdab4da1e58e96eab25f81f67bc8ec690

Еще никто не оставлял запись к записи скачать торрент YoungBlood - No Retreat - 2012, FLAC . Будь первым!

!Обратная связь