Скачать через торрент музыку Mungo Jerry - The Very Best Of Mungo Jerry - 2002, FLAC бесплатно без регистрации torrent

Если у вас наблюдаются проблемы со скриншотами, переходом по ссылками, скачиванием торрентов - проблемы в блокировщике рекламы AdBlock. #хорошегоДня!


Статистика раздачи
Размер:  350 MB   |    Зарегистрирован:  4 года 11 месяцев   |    .torrent скачан:  13 раз   |   
Раздают:  1  
   
Загрузка...
 
Автор Сообщение

Galfimbul

avatar Galfimbul


Mungo Jerry / The Very Best Of Mungo Jerry

Жанр: Contemporary Pop/Rock, Soft Rock, Jug Band
Страна-производитель диска: USA
Год издания диска: 2002
Издатель (лейбл): Castle Music / Sanctuary Records
Номер по каталогу: 06076-81171-2
Страна: England
Аудио кодек: FLAC (*.flac)
Тип рипа: image+.cue
Битрейт аудио: lossless
Продолжительность: 51:50
Источник (релизер): Компакт диск из моей коллекции
Наличие сканов в содержимом раздачи: да

Треклист:
01. In The Summertime
02. Baby Let's Play House
03. Lady Rose
04. Baby Jump
05. You Don't Have To Be In The Army To Fight The War
06. Wild Love
07. Alright, Alright, Alright
08. Open Up
09. Too Fast To Live, Too Young To Die
10. San Francisco Bay Blues
11. Long Legged Woman Dressed In Black
12. Little Miss Hipshake
13. Mighty Man
14. I Just Wanna Make Love To You
Exact Audio Copy V1.0 beta 1 from 15. November 2010

EAC extraction logfile from 5. February 2011, 20:59

Mungo Jerry / The Very Best Of Mungo Jerry

Used drive : Optiarc DVD RW AD-7241S Adapter: 5 ID: 0

Read mode : SecureUtilize accurate stream : YesDefeat audio cache : YesMake use of C2 pointers : No

Read offset correction : 48Overread into Lead-In and Lead-Out : NoFill up missing offset samples with silence : YesDelete leading and trailing silent blocks : NoNull samples used in CRC calculations : YesUsed interface : Native Win32 interface for Win NT & 2000

Used output format : User Defined EncoderSelected bitrate : 768 kBit/sQuality : HighAdd ID3 tag : NoCommand line compressor : D:\Program Files (x86)\Exact Audio Copy\FLAC\FLAC.EXEAdditional command line options : -6 -V -T "ARTIST=%a" -T "TITLE=%t" -T "ALBUM=%g" -T "DATE=%y" -T "TRACKNUMBER=%n" -T "GENRE=%m" -T "COMMENT=%e" %j--picture="%i"%j %s -o %d

TOC of the extracted CD

Track | Start | Length | Start sector | End sector --------------------------------------------------------- 1 | 0:00.00 | 3:32.46 | 0 | 15945 2 | 3:32.46 | 2:52.10 | 15946 | 28855 3 | 6:24.56 | 4:14.36 | 28856 | 47941 4 | 10:39.17 | 4:06.07 | 47942 | 66398 5 | 14:45.24 | 3:12.41 | 66399 | 80839 6 | 17:57.65 | 3:09.51 | 80840 | 95065 7 | 21:07.41 | 2:46.09 | 95066 | 107524 8 | 23:53.50 | 3:18.72 | 107525 | 122446 9 | 27:12.47 | 1:47.16 | 122447 | 130487 10 | 28:59.63 | 3:38.71 | 130488 | 146908 11 | 32:38.59 | 2:54.00 | 146909 | 159958 12 | 35:32.59 | 2:33.29 | 159959 | 171462 13 | 38:06.13 | 4:44.71 | 171463 | 192833 14 | 42:51.09 | 9:02.32 | 192834 | 233515

Range status and errors

Selected range

Filename F:\lossless\Mungo Jerry\2002 - The Very Best Of Mungo Jerry\Mungo Jerry - The Very Best Of Mungo Jerry.wav

Peak level 98.8 % Extraction speed 0.6 X Range quality 100.0 % Test CRC D8214C8F Copy CRC D8214C8F Copy OK

No errors occurred

AccurateRip summary

Track 1 accurately ripped (confidence 3) [7C229FC4]Track 2 accurately ripped (confidence 3) [0C723E01]Track 3 accurately ripped (confidence 3) [A0DE310C]Track 4 accurately ripped (confidence 3) [1DA8317E]Track 5 accurately ripped (confidence 3) [AF9325CC]Track 6 accurately ripped (confidence 3) [B213D918]Track 7 accurately ripped (confidence 3) [43C2AB86]Track 8 accurately ripped (confidence 3) [E130BC73]Track 9 accurately ripped (confidence 3) [2161557D]Track 10 accurately ripped (confidence 3) [5DB22932]Track 11 accurately ripped (confidence 3) [869EC937]Track 12 accurately ripped (confidence 3) [984C4B49]Track 13 accurately ripped (confidence 3) [086843F1]Track 14 accurately ripped (confidence 3) [3F028A4D]

All tracks accurately ripped

End of status report
This fine collection of Mungo Jerry's better-known tracks, including the band's big hit, "In the Summertime".


Трекер:  [ 11-Ноя-2012 19:17 ]

  

Скачать .torrent

Размер .torrent файла 14 KB


Размер: 350 MB
Хэш (hash) релиза: 51a9ac6064d98f7932f24d142268ca43d8a8f66d

Еще никто не оставлял запись к записи скачать торрент Mungo Jerry - The Very Best Of Mungo Jerry - 2002, FLAC . Будь первым!

!Обратная связь