Скачать через торрент музыку Every Mothers Nightmare - Every Mothers Nightmare - 1990, FLAC бесплатно без регистрации torrent

Если у вас наблюдаются проблемы со скриншотами, переходом по ссылками, скачиванием торрентов - проблемы в блокировщике рекламы AdBlock. #хорошегоДня!


Статистика раздачи
Размер:  311 MB   |    Зарегистрирован:  5 лет   |    .torrent скачан:  10 раз   |   
Раздают:  1  
   
Загрузка...
 
Автор Сообщение

Galfimbul

avatar Galfimbul


Every Mother's Nightmare / Every Mother's Nightmare

Жанр: Hard Rock
Страна-производитель диска: United States
Год издания: 1990
Издатель (лейбл): Arista
Номер по каталогу: ARCD-8633
Страна: United States
Аудиокодек: FLAC (*.flac)
Тип рипа: image+.cue
Битрейт аудио: lossless
Продолжительность: 39:34
Источник (релизер): slayer19
Наличие сканов в содержимом раздачи: да (All Scans)
Треклист:
01. Hard To Hold (3:28)
02. Ez Come Ez Go (3:45)
03. Bad On Love (3:12)
04. Walls Come Down (5:15)
05. Love Can Make You Blind (5:01)
06. Listen Up (3:02)
07. Dues To Play (2:58)
08. Long Haired Country Boy (3:48)
09. Lord Willin’ (3:20)
10. Nobody Knows (5:46)
Exact Audio Copy V1.0 beta 3 from 29. August 2011

Отчёт EAC об извлечении, выполненном 31. октября 2012, 15:51

Every Mother's Nightmare / Every Mother's Nightmare

Дисковод: Optiarc DVD RW AD-7200A Adapter: 0 ID: 0

Режим чтения : ДостоверностьИспользование точного потока : ДаОтключение кэша аудио : ДаИспользование указателей C2 : Нет

Коррекция смещения при чтении : 48Способность читать области Lead-in и Lead-out : НетЗаполнение пропущенных сэмплов тишиной : ДаУдаление блоков с тишиной в начале и конце : НетПри вычислениях CRC использовались нулевые сэмплы : ДаИнтерфейс : Встроенный Win32-интерфейс для Win NT/2000

Выходной формат : Пользовательский кодировщикВыбранный битрейт : 128 kBit/sКачество : ВысокийДобавление ID3-тега : НетУтилита сжатия : C:\Program Files\FLAC\FLAC frontend.exe

TOC извлечённого CD

Трек | Старт | Длительность | Начальный сектор | Конечный сектор --------------------------------------------------------------------- 1 | 0:00.00 | 3:27.55 | 0 | 15579 2 | 3:27.55 | 3:44.45 | 15580 | 32424 3 | 7:12.25 | 3:11.50 | 32425 | 46799 4 | 10:24.00 | 5:14.40 | 46800 | 70389 5 | 15:38.40 | 5:00.42 | 70390 | 92931 6 | 20:39.07 | 3:02.20 | 92932 | 106601 7 | 23:41.27 | 2:58.28 | 106602 | 119979 8 | 26:39.55 | 3:47.47 | 119980 | 137051 9 | 30:27.27 | 3:20.05 | 137052 | 152056 10 | 33:47.32 | 5:46.35 | 152057 | 178041

Характеристики диапазона извлечения и сообщения об ошибках

Выбранный диапазон

Имя файла D:\МОИ ФАЙЛЫ\LOSSLESS\slayer19\Every Mother's Nightmare - Every Mother's Nightmare.wav

Пиковый уровень 100.0 % Скорость извлечения 3.5 X Качество диапазона 100.0 % CRC теста 49545CBB CRC копии 49545CBB Копирование... OK

Ошибок не произошло

AccurateRip: сводка

Трек 1 : извлечено точно (доверие 12) [A254DE28] (AR v1)Трек 2 : извлечено точно (доверие 12) [0CE05E80] (AR v1)Трек 3 : извлечено точно (доверие 12) [C4D27BBD] (AR v1)Трек 4 : извлечено точно (доверие 12) [81A13A3B] (AR v1)Трек 5 : извлечено точно (доверие 12) [19DDD77D] (AR v1)Трек 6 : извлечено точно (доверие 12) [ADD1DC36] (AR v1)Трек 7 : извлечено точно (доверие 12) [2EBFE275] (AR v1)Трек 8 : извлечено точно (доверие 12) [56B12718] (AR v1)Трек 9 : извлечено точно (доверие 12) [F75F2F7F] (AR v1)Трек 10 : извлечено точно (доверие 12) [FAE4D02C] (AR v1)

Все треки извлечены точно

Конец отчёта

---- CUETools DB Plugin V2.1.3

[CTDB TOCID: gPaZ4WuGJmT6wUTJBzzx84TSb_o-] found, Submit result: gPaZ4WuGJmT6wUTJBzzx84TSb_o- has been confirmed[b0434789] (2/2) Accurately ripped

==== Контрольная сумма отчёта 214593D28186F49EBFB1401B4A3BC05A2FADCA312229581D2BF633CD796BDAC8 ====


Трекер:  [ 11-Ноя-2012 19:17 ]

  

Скачать .torrent

Размер .torrent файла 13 KB


Размер: 311 MB
Хэш (hash) релиза: 563844ab2c8c7dac8d2b5aba609714f97896d341

Еще никто не оставлял запись к записи скачать торрент Every Mothers Nightmare - Every Mothers Nightmare - 1990, FLAC . Будь первым!

!Обратная связь