Скачать через торрент музыку ESP бесплатно без регистрации torrent

Если у вас наблюдаются проблемы со скриншотами, переходом по ссылками, скачиванием торрентов - проблемы в блокировщике рекламы AdBlock. #хорошегоДня!


Статистика раздачи
Размер:  334 MB   |    Зарегистрирован:  4 года 11 месяцев   |    .torrent скачан:  17 раз   |   
Раздают:  1  
   
Загрузка...
 
Автор Сообщение

Galfimbul

avatar Galfimbul


ESP (Eric Singer Project) / ESP
Жанр: Hard Rock
Страна-производитель диска: USA
Год издания: 1999
Издатель (лейбл): Rock Hard Records
Номер по каталогу: 061970238-2
Страна: USA
Аудиокодек: APE (*.ape)
Тип рипа: image+.cue
Битрейт аудио: lossless
Продолжительность: 46:38
Источник (релизер): Свой рип с оригинального CD
Наличие сканов в содержимом раздачи: 300dpi
Tracks:
01. Teenage Nervous Breakdown (cover: Little Feat)
02. Four Day Creep (cover: Humble Pie)
03. Free Ride (cover: Edgar Winter)
04. Still Alive & Well (cover: Johnny Winter)
05. Never Before (cover: Deep Purple)
06. Goin' Blind (cover: Kiss)
07. Set Me Free (cover: Sweet)
08. Changes (cover: Jimi Hendrix)
09. SOS (Too Bad) (cover: Aerosmith)
10. Foxy Lady (cover: Jimi Hendrix)
11. Twenty Flight Rock (cover: Montrose)
12. Won't Get Fooled Again (cover: The Who)

Personnel:
Eric Singer - drums, vocals
Bruce Kulick - guitars, vocals
John Corabi - guitars, vocals
Karl Cochran - bass, vocals
Ace Frehley - lead guitar on 10
Roberta Freeman - backing vocals
Curt Cuomo - percussion
Nicky Lemmons - keyboards

Exact Audio Copy V0.99 prebeta 4 from 23. January 2008

Отчёт EAC об извлечении, выполненном 11. июля 2011, 19:14

ESP / ESP

Дисковод: ASUS DRW-22B2L b Adapter: 0 ID: 0

Режим чтения : ДостоверностьИспользование точного потока : ДаОтключение кэша аудио : ДаИспользование указателей C2 : Нет

Коррекция смещения при чтении : 6Способность читать области Lead-in и Lead-out : НетЗаполнение пропущенных сэмплов тишиной : ДаУдаление блоков с тишиной в начале и конце : НетПри вычислениях CRC использовались нулевые сэмплы : ДаИнтерфейс : Встроенный Win32-интерфейс для Win NT/2000

Выходной формат : Внутренние WAV-операцииФормат сэмплов : 44.100 Гц; 16 бит; стерео

TOC извлечённого CD

Трек | Старт | Длительность | Начальный сектор | Конечный сектор --------------------------------------------------------------------- 1 | 0:00.32 | 4:07.65 | 32 | 18621 2 | 4:08.22 | 3:10.03 | 18622 | 32874 3 | 7:18.25 | 3:39.52 | 32875 | 49351 4 | 10:58.02 | 3:34.18 | 49352 | 65419 5 | 14:32.20 | 4:00.40 | 65420 | 83459 6 | 18:32.60 | 3:38.57 | 83460 | 99866 7 | 22:11.42 | 3:57.55 | 99867 | 117696 8 | 26:09.22 | 3:36.63 | 117697 | 133959 9 | 29:46.10 | 2:46.32 | 133960 | 146441 10 | 32:32.42 | 4:28.48 | 146442 | 166589 11 | 37:01.15 | 2:48.22 | 166590 | 179211 12 | 39:49.37 | 6:48.50 | 179212 | 209861

Характеристики диапазона извлечения и сообщения об ошибках

Выбранный диапазон

Имя файла C:\Documents and Settings\booddoom\Рабочий стол\Новая папка\ESP - ESP.wav

Пиковый уровень 97.2 % Качество диапазона 100.0 % CRC теста 053C949A CRC копии 053C949A Копирование... OK

Ошибок не произошло

AccurateRip: сводка

Трек 1 точное извлечение (доверие 2) [EF05491C]Трек 2 точное извлечение (доверие 2) [A6A483EA]Трек 3 точное извлечение (доверие 2) [2279046C]Трек 4 точное извлечение (доверие 2) [DFA2EB09]Трек 5 точное извлечение (доверие 2) [FB9CF665]Трек 6 точное извлечение (доверие 2) [CD84C72C]Трек 7 точное извлечение (доверие 2) [80C323E0]Трек 8 точное извлечение (доверие 2) [1CF3FADC]Трек 9 точное извлечение (доверие 2) [F24016DA]Трек 10 точное извлечение (доверие 2) [533DE27D]Трек 11 точное извлечение (доверие 2) [89E8708B]Трек 12 точное извлечение (доверие 2) [D5EE7EAD]

Все треки извлечены точно

Конец отчёта
REM GENRE RockREM DATE 1999REM DISCID 920AEE0CREM COMMENT "ExactAudioCopy v0.99pb4"PERFORMER "ESP"TITLE "ESP"FILE "ESP - ESP.wav" WAVE TRACK 01 AUDIO TITLE "Teenage Nervous Breakdown" PERFORMER "ESP" INDEX 00 00:00:00 INDEX 01 00:00:32 TRACK 02 AUDIO TITLE "Four Day Creep" PERFORMER "ESP" INDEX 00 04:07:15 INDEX 01 04:08:22 TRACK 03 AUDIO TITLE "Free Ride" PERFORMER "ESP" INDEX 00 07:17:37 INDEX 01 07:18:25 TRACK 04 AUDIO TITLE "Still Alive & Well" PERFORMER "ESP" INDEX 00 10:55:52 INDEX 01 10:58:02 TRACK 05 AUDIO TITLE "Never Before" PERFORMER "ESP" INDEX 00 14:29:72 INDEX 01 14:32:20 TRACK 06 AUDIO TITLE "Goin' Blind" PERFORMER "ESP" INDEX 00 18:30:20 INDEX 01 18:32:60 TRACK 07 AUDIO TITLE "Set Me Free" PERFORMER "ESP" INDEX 00 22:10:30 INDEX 01 22:11:42 TRACK 08 AUDIO TITLE "Changes" PERFORMER "ESP" INDEX 00 26:08:62 INDEX 01 26:09:22 TRACK 09 AUDIO TITLE "SOS (Too Bad)" PERFORMER "ESP" INDEX 00 29:45:32 INDEX 01 29:46:10 TRACK 10 AUDIO TITLE "Foxy Lady" PERFORMER "ESP" INDEX 01 32:32:42 TRACK 11 AUDIO TITLE "Twenty Flight Rock" PERFORMER "ESP" INDEX 00 37:00:32 INDEX 01 37:01:15 TRACK 12 AUDIO TITLE "Won't Get Fooled Again" PERFORMER "ESP" INDEX 00 39:48:42 INDEX 01 39:49:37


Трекер:  [ 11-Ноя-2012 19:17 ]

  

Скачать .torrent

Размер .torrent файла 14 KB


Размер: 334 MB
Хэш (hash) релиза: 91ce7687077a4bdf15fc965d44bb8d577e4d7b1a

Торренты, похожие на ESP скачать торрент

Форум Название Автор Размер S L Добавлен
Электронная музыка (mp3) ·· (Deep House / Techno) Bartellow - Panokorama (ESP Institute [ESP 046]) - 2017, MP3, 320 kbps Galfimbul 121914938116 MB 0 0 1491593484

22:31

7-Апр-17

Электронная музыка (lossless) ·· (techno, house, downtempo) [WEB] Lord Of The Isles - In Waves - 2016, ESP Institute, FLAC (tracks), lossless Galfimbul 473707034452 MB 0 0 1504719290

20:34

6-Сен-17

Rосk | Mеtаl | Аltеrnаtivе, Рunk, Indереndеnt (mр3) ·· (Hard Rock) ESP-Eric Singer Project - 1999, MP3 (tracks), 320 kbps Galfimbul 112170233107 MB 0 0 1499594736

13:05

9-Июл-17

Rосk | Mеtаl | Аltеrnаtivе, Рunk, Indереndеnt (mр3) ·· (Thrash/Death Metal) Canker (Esp) - Discography (5 релизов) - 1990-1994, MP3, 192-320 kbps Galfimbul 646844618617 MB 0 0 1487610549

20:09

20-Фев-17

Rосk | Mеtаl | Аltеrnаtivе, Рunk, Indереndеnt (mр3) ·· [ESP] (Black Metal) Fatal Portrait - Adventum - 2006, AAC, true VBR 2-512 kbps Galfimbul 125215335119 MB 0 0 1483378063

20:27

2-Янв-17

Rосk | Mеtаl | Аltеrnаtivе, Рunk, Indереndеnt (mр3) ·· [ESP] (Black Metal) Fatal Portrait - Adventum - 2006, MP3, 320 kbps Galfimbul 120915866115 MB 0 0 1480542585

00:49

1-Дек-16

Электронная музыка (mp3) ·· (Psytrance) Esp - Electric / Space Travel - 2016, MP3, 320 kbps Galfimbul 3526381434 MB 0 0 1480374766

02:12

29-Ноя-16

Электронная музыка (mp3) ·· (Instrumental Hip-Hop/Abstract Hip-Hop/Jazz) Esp Elizarov & Dmitry Tsepilov - Kind of Flow - 2016, MP3, 320 kbps Galfimbul 139027465133 MB 0 0 1480265260

19:47

27-Ноя-16

Rосk | Mеtаl | Аltеrnаtivе, Рunk, Indереndеnt (mр3) ·· (Indie Rock) ESP Ohio - Starting Point of the Royal Cyclopean - 2016, MP3, 320 kbps Galfimbul 105049850100 MB 0 0 1479415966

23:52

17-Ноя-16

Rосk | Mеtаl | Аltеrnаtivе, Рunk, Indереndеnt (mр3) ·· (Eclectic Prog) ESP (Tony Lowe / Mark Brzezicki) - Invisible Din (2016), MP3, 320 kbps Galfimbul 160040583153 MB 0 0 1479153212

22:53

14-Ноя-16

Электронная музыка (mp3) ·· (Full On) ESP - Sensory Overload - 2007, MP3, 320 kbps Galfimbul 191981453183 MB 0 0 1469546094

18:14

26-Июл-16

Rосk | Mеtаl | Аltеrnаtivе, Рunk, Indереndеnt (mр3) ·· (Death Metal, Thrash Metal) Extinction (Esp) - The Dark Matter - 2015, MP3, 128 kbps Galfimbul 2797271327 MB 0 0 1443734507

00:21

2-Окт-15

Rосk | Mеtаl | Аltеrnаtivе, Рunk, Indереndеnt (mр3) ·· (Melodic Death/Doom Metal) Autumnal (Esp) - Дискография 1999 - 2014 (2 CD, 2 Demo) [MP3 (tracks), lossy] Galfimbul 471348256450 MB 0 0 1424006035

16:13

15-Фев-15

Rосk | Mеtаl | Аltеrnаtivе, Рunk, Indереndеnt (mр3) ·· (Melodic Doom/Death Metal) In Loving Memory (Esp) дискография 2006-2014 (2 CD, 1 EP, 1 demo), MP3, 256-320 kbps Galfimbul 434791296415 MB 0 0 1417514496

13:01

2-Дек-14

Саундтреки к аниме (mp3) ·· (OST) Токийские эсперы / Tokyo ESP - 2014 г., MP3 (tracks), 320 kbps [3CD] Galfimbul 152956906146 MB 0 0 1417064724

08:05

27-Ноя-14

Rосk | Mеtаl | Аltеrnаtivе, Рunk, Indереndеnt (losslеss) ·· (Rock, Folk Pop) Els amics de les arts - Espècies per Catalogar (Especies per Catalogar) - 2012 [DiscMedi, DM 4960 02], APE (image+.cue+scans), lossless Polarnik 352897848337 MB 0 0 1379775012

17:50

21-Сен-13

Электронная музыка (lossless) ·· (Deep House, Nu Disco) Tornado Wallace - Thinking Allowed (ESP 015) (WEB) 2013, FLAC (tracks), lossless Galfimbul 135795562130 MB 0 0 1377118746

23:59

21-Авг-13

Rосk | Mеtаl | Аltеrnаtivе, Рunk, Indереndеnt (mр3) ·· (Symphonic Black/Death/Gothic Metal) Absentia (Esp) - Дискография 2009-2011 (2 LP:2009 - Heaven Still Burns\ 2011 - Our Bleeding Sun\) [MP3 (tracks), vbr192-320 kbps] _N_ 177726283169 MB 0 0 1372883648

23:34

3-Июл-13

Rосk | Mеtаl | Аltеrnаtivе, Рunk, Indереndеnt (mр3) ·· (Doom Metal) Orthodox (Esp) - Дискография 2006 - 2013 (4 LP, 1 EP, 1 Compilation, 1 Split) [MP3 (tracks), vbr148-320 kbps] Galfimbul 613506712585 MB 0 0 1372192705

23:38

25-Июн-13

Еще никто не оставлял запись к записи скачать торрент ESP . Будь первым!

!Обратная связь