Скачать через торрент музыку Kiss - Monster бесплатно без регистрации torrent

Если у вас наблюдаются проблемы со скриншотами, переходом по ссылками, скачиванием торрентов - проблемы в блокировщике рекламы AdBlock. #хорошегоДня!


Статистика раздачи
Размер:  352 MB   |    Зарегистрирован:  5 лет   |    .torrent скачан:  26 раз   |   
Раздают:  1  
   
Загрузка...
 
Автор Сообщение

Galfimbul

avatar Galfimbul


Kiss / Monster

Жанр: Glam Rock
Год издания: 2012
Издатель (лейбл): Universal Music Japan
Страна: US
Аудиокодек: FLAC (*.flac)
Тип рипа: tracks+.cue
Битрейт аудио: lossless
Продолжительность: 47:48
Источник (релизер): What.cd
Наличие сканов в содержимом раздачи: нет
Треклист:
01. Hell or Hallelujah (4:07)
02. Wall of Sound (2:56)
03. Freak (3:35)
04. Back to the Stone Age (3:01)
05. Shout Mercy (4:04)
06. Long Way Down (3:51)
07. Eat Your Heart Out (4:06)
08. The Devil Is Me (3:41)
09. Outta This World (4:29)
10. All for the Love of Rock & Roll (3:22)
11. Take Me Down Below (3:25)
12. Last Chance (3:06)
13. King of the Night Time World (Live, Rock the Nation Lost Tracks) (4:02)

http://www.kissonline.com/
http://www.facebook.com/KISS
X Lossless Decoder version 20120908 (141.1)

XLD extraction logfile from 2012-10-10 15:44:30 -0400

KISS / Monster (Universal Music Japan, SHM-CD, Stereo)

Used drive : PIONEER BD-RW BDR-206D (revision 1.56)

Ripper mode : XLD Secure RipperDisable audio cache : OK for the drive with a cache less than 1375KiBMake use of C2 pointers : NORead offset correction : 667Max retry count : 100Gap status : Analyzed, Appended

TOC of the extracted CD Track | Start | Length | Start sector | End sector --------------------------------------------------------- 1 | 00:00:00 | 04:07:27 | 0 | 18551 2 | 04:07:27 | 02:55:42 | 18552 | 31718 3 | 07:02:69 | 03:35:24 | 31719 | 47867 4 | 10:38:18 | 03:01:23 | 47868 | 61465 5 | 13:39:41 | 04:04:33 | 61466 | 79798 6 | 17:43:74 | 03:51:01 | 79799 | 97124 7 | 21:35:00 | 04:06:15 | 97125 | 115589 8 | 25:41:15 | 03:41:03 | 115590 | 132167 9 | 29:22:18 | 04:29:05 | 132168 | 152347 10 | 33:51:23 | 03:21:47 | 152348 | 167469 11 | 37:12:70 | 03:24:38 | 167470 | 182807 12 | 40:37:33 | 03:13:24 | 182808 | 197306 13 | 43:50:57 | 04:02:41 | 197307 | 215497

AccurateRip Summary Disc not found in AccurateRip DB.

All Tracks Album gain : -11.07 dB Peak : 1.000000 Statistics Read error : 0 Jitter error (maybe fixed) : 0 Retry sector count : 0 Damaged sector count : 0

Track 01 Filename : /Volumes/Mac Pro Storage I/XLD FLAC Encodes/KISS - Monster (Universal Music Japan, SHM-CD, Stereo) (2012) [FLAC]/01 Hell or Hallelujah.flac Pre-gap length : 00:02:00

Track gain : -11.52 dB Peak : 1.000000 CRC32 hash (test run) : 6BF66D30 CRC32 hash : 6BF66D30 CRC32 hash (skip zero) : 2168D8B9 AccurateRip v1 signature : 2BF6E1E2 AccurateRip v2 signature : 991E33D4 ->Track not present in AccurateRip database. Statistics Read error : 0 Jitter error (maybe fixed) : 0 Retry sector count : 0 Damaged sector count : 0

Track 02 Filename : /Volumes/Mac Pro Storage I/XLD FLAC Encodes/KISS - Monster (Universal Music Japan, SHM-CD, Stereo) (2012) [FLAC]/02 Wall of Sound.flac Pre-gap length : 00:00:06

Track gain : -9.66 dB Peak : 1.000000 CRC32 hash (test run) : 481381B8 CRC32 hash : 481381B8 CRC32 hash (skip zero) : 6FF9A927 AccurateRip v1 signature : 11302602 AccurateRip v2 signature : C40FC343 ->Track not present in AccurateRip database. Statistics Read error : 0 Jitter error (maybe fixed) : 0 Retry sector count : 0 Damaged sector count : 0

Track 03 Filename : /Volumes/Mac Pro Storage I/XLD FLAC Encodes/KISS - Monster (Universal Music Japan, SHM-CD, Stereo) (2012) [FLAC]/03 Freak.flac Pre-gap length : 00:00:13

Track gain : -11.15 dB Peak : 1.000000 CRC32 hash (test run) : 2AA4145C CRC32 hash : 2AA4145C CRC32 hash (skip zero) : BCA7C4D1 AccurateRip v1 signature : 47CBD2BB AccurateRip v2 signature : 086F6E76 ->Track not present in AccurateRip database. Statistics Read error : 0 Jitter error (maybe fixed) : 0 Retry sector count : 0 Damaged sector count : 0

Track 04 Filename : /Volumes/Mac Pro Storage I/XLD FLAC Encodes/KISS - Monster (Universal Music Japan, SHM-CD, Stereo) (2012) [FLAC]/04 Back to the Stone Age.flac Pre-gap length : 00:00:15

Track gain : -10.40 dB Peak : 1.000000 CRC32 hash (test run) : DF091084 CRC32 hash : DF091084 CRC32 hash (skip zero) : 262B86BA AccurateRip v1 signature : 985226CE AccurateRip v2 signature : CC5E80A3 ->Track not present in AccurateRip database. Statistics Read error : 0 Jitter error (maybe fixed) : 0 Retry sector count : 0 Damaged sector count : 0

Track 05 Filename : /Volumes/Mac Pro Storage I/XLD FLAC Encodes/KISS - Monster (Universal Music Japan, SHM-CD, Stereo) (2012) [FLAC]/05 Shout Mercy.flac Pre-gap length : 00:00:12

Track gain : -11.37 dB Peak : 1.000000 CRC32 hash (test run) : C4CDA67E CRC32 hash : C4CDA67E CRC32 hash (skip zero) : B8EF7D0A AccurateRip v1 signature : 7AD41993 AccurateRip v2 signature : 69E3946D ->Track not present in AccurateRip database. Statistics Read error : 0 Jitter error (maybe fixed) : 0 Retry sector count : 0 Damaged sector count : 0

Track 06 Filename : /Volumes/Mac Pro Storage I/XLD FLAC Encodes/KISS - Monster (Universal Music Japan, SHM-CD, Stereo) (2012) [FLAC]/06 Long Way Down.flac Pre-gap length : 00:00:09

Track gain : -10.78 dB Peak : 1.000000 CRC32 hash (test run) : F02C47D1 CRC32 hash : F02C47D1 CRC32 hash (skip zero) : 57574FFB AccurateRip v1 signature : 777F7C92 AccurateRip v2 signature : 2442D802 ->Track not present in AccurateRip database. Statistics Read error : 0 Jitter error (maybe fixed) : 0 Retry sector count : 0 Damaged sector count : 0

Track 07 Filename : /Volumes/Mac Pro Storage I/XLD FLAC Encodes/KISS - Monster (Universal Music Japan, SHM-CD, Stereo) (2012) [FLAC]/07 Eat Your Heart Out.flac Pre-gap length : 00:00:03

Track gain : -10.83 dB Peak : 0.988586 CRC32 hash (test run) : 3617B5F9 CRC32 hash : 3617B5F9 CRC32 hash (skip zero) : 32C4844A AccurateRip v1 signature : 5E4A37A2 AccurateRip v2 signature : 95127F20 ->Track not present in AccurateRip database. Statistics Read error : 0 Jitter error (maybe fixed) : 0 Retry sector count : 0 Damaged sector count : 0

Track 08 Filename : /Volumes/Mac Pro Storage I/XLD FLAC Encodes/KISS - Monster (Universal Music Japan, SHM-CD, Stereo) (2012) [FLAC]/08 The Devil is Me.flac Pre-gap length : 00:00:02

Track gain : -11.18 dB Peak : 1.000000 CRC32 hash (test run) : 4E73D6ED CRC32 hash : 4E73D6ED CRC32 hash (skip zero) : 8769A601 AccurateRip v1 signature : 3DEFD539 AccurateRip v2 signature : E723D58C ->Track not present in AccurateRip database. Statistics Read error : 0 Jitter error (maybe fixed) : 0 Retry sector count : 0 Damaged sector count : 0

Track 09 Filename : /Volumes/Mac Pro Storage I/XLD FLAC Encodes/KISS - Monster (Universal Music Japan, SHM-CD, Stereo) (2012) [FLAC]/09 Outta This World.flac Pre-gap length : 00:00:11

Track gain : -10.86 dB Peak : 1.000000 CRC32 hash (test run) : EEF2ED51 CRC32 hash : EEF2ED51 CRC32 hash (skip zero) : 915F37A6 AccurateRip v1 signature : 1199AD2D AccurateRip v2 signature : 04C1C241 ->Track not present in AccurateRip database. Statistics Read error : 0 Jitter error (maybe fixed) : 0 Retry sector count : 0 Damaged sector count : 0

Track 10 Filename : /Volumes/Mac Pro Storage I/XLD FLAC Encodes/KISS - Monster (Universal Music Japan, SHM-CD, Stereo) (2012) [FLAC]/10 All for the Love of Rock & Roll.flac Pre-gap length : 00:00:05

Track gain : -10.18 dB Peak : 1.000000 CRC32 hash (test run) : 3F07BFD8 CRC32 hash : 3F07BFD8 CRC32 hash (skip zero) : 823CE1C2 AccurateRip v1 signature : E69B8305 AccurateRip v2 signature : 87912931 ->Track not present in AccurateRip database. Statistics Read error : 0 Jitter error (maybe fixed) : 0 Retry sector count : 0 Damaged sector count : 0

Track 11 Filename : /Volumes/Mac Pro Storage I/XLD FLAC Encodes/KISS - Monster (Universal Music Japan, SHM-CD, Stereo) (2012) [FLAC]/11 Take Me Down Below.flac Pre-gap length : 00:00:19

Track gain : -10.82 dB Peak : 1.000000 CRC32 hash (test run) : 9C7F8EC7 CRC32 hash : 9C7F8EC7 CRC32 hash (skip zero) : 277A1CF6 AccurateRip v1 signature : B4827CC2 AccurateRip v2 signature : 137D3D1A ->Track not present in AccurateRip database. Statistics Read error : 0 Jitter error (maybe fixed) : 0 Retry sector count : 0 Damaged sector count : 0

Track 12 Filename : /Volumes/Mac Pro Storage I/XLD FLAC Encodes/KISS - Monster (Universal Music Japan, SHM-CD, Stereo) (2012) [FLAC]/12 Last Chance.flac Pre-gap length : 00:00:15

Track gain : -11.52 dB Peak : 1.000000 CRC32 hash (test run) : 6BF4CD9B CRC32 hash : 6BF4CD9B CRC32 hash (skip zero) : D89C139B AccurateRip v1 signature : 87E7A35F AccurateRip v2 signature : 20BF267C ->Track not present in AccurateRip database. Statistics Read error : 0 Jitter error (maybe fixed) : 0 Retry sector count : 0 Damaged sector count : 0

Track 13 Filename : /Volumes/Mac Pro Storage I/XLD FLAC Encodes/KISS - Monster (Universal Music Japan, SHM-CD, Stereo) (2012) [FLAC]/13 King of the Night Time World (Live, Rock the Nation Lost Tracks).flac Pre-gap length : 00:07:50

Track gain : -11.00 dB Peak : 1.000000 CRC32 hash (test run) : 1FEF6EAA CRC32 hash : 1FEF6EAA CRC32 hash (skip zero) : A38E3F99 AccurateRip v1 signature : 6AC499F0 AccurateRip v2 signature : F9058D90 ->Track not present in AccurateRip database. Statistics Read error : 0 Jitter error (maybe fixed) : 0 Retry sector count : 0 Damaged sector count : 0

No errors occurred

End of status report
TITLE "Monster (Universal Music Japan, SHM-CD, Stereo)"PERFORMER "KISS"REM GENRE "Rock"REM DATE "2012"REM DISCNUMBER 1REM TOTALDISCS 1REM DISCID A00B390DREM REPLAYGAIN_ALBUM_GAIN -11.07 dBREM REPLAYGAIN_ALBUM_PEAK 1.000000FILE "01 Hell or Hallelujah.flac" WAVE TRACK 01 AUDIO TITLE "Hell or Hallelujah" ISRC US6VD1200001 REM REPLAYGAIN_TRACK_GAIN -11.52 dB REM REPLAYGAIN_TRACK_PEAK 1.000000 INDEX 01 00:00:00 TRACK 02 AUDIO TITLE "Wall of Sound" ISRC US6VD1200002 REM REPLAYGAIN_TRACK_GAIN -9.66 dB REM REPLAYGAIN_TRACK_PEAK 1.000000 INDEX 00 04:07:21FILE "02 Wall of Sound.flac" WAVE INDEX 01 00:00:00 TRACK 03 AUDIO TITLE "Freak" ISRC US6VD1200003 REM REPLAYGAIN_TRACK_GAIN -11.15 dB REM REPLAYGAIN_TRACK_PEAK 1.000000 INDEX 00 02:55:29FILE "03 Freak.flac" WAVE INDEX 01 00:00:00 TRACK 04 AUDIO TITLE "Back to the Stone Age" ISRC US6VD1200004 REM REPLAYGAIN_TRACK_GAIN -10.40 dB REM REPLAYGAIN_TRACK_PEAK 1.000000 INDEX 00 03:35:09FILE "04 Back to the Stone Age.flac" WAVE INDEX 01 00:00:00 TRACK 05 AUDIO TITLE "Shout Mercy" ISRC US6VD1200005 REM REPLAYGAIN_TRACK_GAIN -11.37 dB REM REPLAYGAIN_TRACK_PEAK 1.000000 INDEX 00 03:01:11FILE "05 Shout Mercy.flac" WAVE INDEX 01 00:00:00 TRACK 06 AUDIO TITLE "Long Way Down" ISRC US6VD1200007 REM REPLAYGAIN_TRACK_GAIN -10.78 dB REM REPLAYGAIN_TRACK_PEAK 1.000000 INDEX 00 04:04:24FILE "06 Long Way Down.flac" WAVE INDEX 01 00:00:00 TRACK 07 AUDIO TITLE "Eat Your Heart Out" ISRC US6VD1200006 REM REPLAYGAIN_TRACK_GAIN -10.83 dB REM REPLAYGAIN_TRACK_PEAK 0.988586 INDEX 00 03:50:73FILE "07 Eat Your Heart Out.flac" WAVE INDEX 01 00:00:00 TRACK 08 AUDIO TITLE "The Devil is Me" ISRC US6VD1200008 REM REPLAYGAIN_TRACK_GAIN -11.18 dB REM REPLAYGAIN_TRACK_PEAK 1.000000 INDEX 00 04:06:13FILE "08 The Devil is Me.flac" WAVE INDEX 01 00:00:00 TRACK 09 AUDIO TITLE "Outta This World" ISRC US6VD1200009 REM REPLAYGAIN_TRACK_GAIN -10.86 dB REM REPLAYGAIN_TRACK_PEAK 1.000000 INDEX 00 03:40:67FILE "09 Outta This World.flac" WAVE INDEX 01 00:00:00 TRACK 10 AUDIO TITLE "All for the Love of Rock & Roll" ISRC US6VD1200011 REM REPLAYGAIN_TRACK_GAIN -10.18 dB REM REPLAYGAIN_TRACK_PEAK 1.000000 INDEX 00 04:29:00FILE "10 All for the Love of Rock & Roll.flac" WAVE INDEX 01 00:00:00 TRACK 11 AUDIO TITLE "Take Me Down Below" ISRC US6VD1200010 REM REPLAYGAIN_TRACK_GAIN -10.82 dB REM REPLAYGAIN_TRACK_PEAK 1.000000 INDEX 00 03:21:28FILE "11 Take Me Down Below.flac" WAVE INDEX 01 00:00:00 TRACK 12 AUDIO TITLE "Last Chance" ISRC US6VD1200012 REM REPLAYGAIN_TRACK_GAIN -11.52 dB REM REPLAYGAIN_TRACK_PEAK 1.000000 INDEX 00 03:24:23FILE "12 Last Chance.flac" WAVE INDEX 01 00:00:00 TRACK 13 AUDIO TITLE "King of the Night Time World (Live, Rock the Nation Lost Tracks)" REM REPLAYGAIN_TRACK_GAIN -11.00 dB REM REPLAYGAIN_TRACK_PEAK 1.000000 INDEX 00 03:05:49FILE "13 King of the Night Time World (Live, Rock the Nation Lost Tracks).flac" WAVE INDEX 01 00:00:00
-----------------------

DON'T MODIFY THIS FILE

-----------------------

PERFORMER: auCDtect Task Manager, ver. 1.5.1RC6 build 1.5.1.7Copyright (c) 2008-2010 y-soft. All rights reservedhttp://y-soft.org

ANALYZER: auCDtect: CD records authenticity detector, version 0.8.2Copyright (c) 2004 Oleg Berngardt. All rights reserved.Copyright (c) 2004 Alexander Djourik. All rights reserved.

FILE: 13 King of the Night Time World (Live, Rock the Nation Lost Tracks).flac Size: 29512147 Hash: F3299C45CD95C71DBCDBF88B9415AF4F Accuracy: -m0 Conclusion: CDDA 100% Signature: 40C3CB0B9722C37C005AE517E5F6C3E8E8E8B1E0FILE: 12 Last Chance.flac Size: 24199185 Hash: 53CD1C61E34465DDD9D7A72E7D57FC74 Accuracy: -m0 Conclusion: CDDA 100% Signature: 644D88A5C881854A5030649F7D96D4FA46F88612FILE: 11 Take Me Down Below.flac Size: 25514281 Hash: D492C5A321682C5EC216662347A314FB Accuracy: -m0 Conclusion: CDDA 99% Signature: 24117BF83C298F9888F3EBF9DB5BF2D539BBF622FILE: 10 All for the Love of Rock & Roll.flac Size: 25150034 Hash: 9F690233D2EC6819143CC945173022DC Accuracy: -m0 Conclusion: CDDA 99% Signature: 4E0D702C702609A6040189B7C6A34592BED4D38EFILE: 09 Outta This World.flac Size: 35441492 Hash: CD6BA3F5459237D740D9B776E5B49707 Accuracy: -m0 Conclusion: CDDA 99% Signature: F9607AB964C54D2800D84573BEBB747A1442DB83FILE: 08 The Devil is Me.flac Size: 28491224 Hash: C6D320C1EC42C8588992F529EDD634CF Accuracy: -m0 Conclusion: CDDA 100% Signature: 2E9803DF9CF742B7D6492948F22C185358FA0C7EFILE: 07 Eat Your Heart Out.flac Size: 30665099 Hash: BEAEF2AD2B7F0DC02CC4409D5D14E4D5 Accuracy: -m0 Conclusion: CDDA 100% Signature: 0636E3B950BC4A99E41C25578794086AFF8D34C2FILE: 06 Long Way Down.flac Size: 29536207 Hash: E9BB4C263155646DFDAA26598E8BF509 Accuracy: -m0 Conclusion: CDDA 100% Signature: 5EE79ACB13FDFD65B9BF8B95B52D6AC6040099A3FILE: 05 Shout Mercy.flac Size: 32532565 Hash: F9F6BFF06FF41D268EA14B4394A561B0 Accuracy: -m0 Conclusion: CDDA 100% Signature: 795D4BB6F5055B22EE44A9D65BEC666AAAD99CE5FILE: 04 Back to the Stone Age.flac Size: 22975591 Hash: D6224531379E6BFCACD5BE053F09DCD2 Accuracy: -m0 Conclusion: CDDA 99% Signature: 5749807B1AC7A61089B35E88BD0AF3C776B746B5FILE: 03 Freak.flac Size: 27818251 Hash: 9D2821B3FB212D5495029DE15D35AEB9 Accuracy: -m0 Conclusion: CDDA 100% Signature: 0FF2A72B7A7C11AB2C8B67FFFA4B49E257D62A72FILE: 02 Wall of Sound.flac Size: 21866613 Hash: FCE03BC456BC041744222229D559067A Accuracy: -m0 Conclusion: CDDA 99% Signature: C08B04959F07288DD82CB840B73A382BA5A0C464FILE: 01 Hell or Hallelujah.flac Size: 33412133 Hash: 73CC1B0FC53365AA2BD07747BF0ADA72 Accuracy: -m0 Conclusion: CDDA 100% Signature: 21EB6CC983DA98582E528BF0753CD116C176C5D9
http://www.youtube.com/watch?v=s9bsasfyESs&

Трекер:  [ 11-Ноя-2012 19:17 ]

  

Скачать .torrent

Размер .torrent файла 15 KB


Размер: 352 MB
Хэш (hash) релиза: 60e67a787b6428d68c7cbdc816f43511cded19c2

Торренты, похожие на Kiss - Monster скачать торрент

Форум Название Автор Размер S L Добавлен
Зарубежный Rock ·· (Glam Rock) Kiss - Monster (Japan Edition) - 2012, MP3, 320 kbps Galfimbul 117770073112 MB 0 0 1352121780

16:23

5-Ноя-12

Еще никто не оставлял запись к записи скачать торрент Kiss - Monster . Будь первым!

!Обратная связь