Скачать через торрент музыку Eclipse - The Truth And A Little More - 2001, APE бесплатно без регистрации torrent

Если у вас наблюдаются проблемы со скриншотами, переходом по ссылками, скачиванием торрентов - проблемы в блокировщике рекламы AdBlock. #хорошегоДня!


Статистика раздачи
Размер:  371 MB   |    Зарегистрирован:  4 года 11 месяцев   |    .torrent скачан:  16 раз   |   
Раздают:  1  
   
Загрузка...
 
Автор Сообщение

Galfimbul

avatar Galfimbul


Eclipse - The Truth And A Little More

Жанр: Melodic Hard Rock/AOR
Страна-производитель диска: Czech Republic
Год издания: 2001
Издатель (лейбл): Z Records
Номер по каталогу: ZR 1997047
Страна: Sweden
Аудиокодек: APE (*.ape)
Тип рипа: image+.cue
Битрейт аудио: lossless
Продолжительность: 50:05
Источник (релизер): original CD
Наличие сканов в содержимом раздачи: да

Треклист:

01. Midnight Train [0:03:15.31]
02. The Truth [0:03:53.18]
03. The Only One [0:03:50.66]
04. Message Of Love [0:05:40.21]
05. I Believe In You [0:03:58.05]
06. I Thought I Had It All [0:03:54.21]
07. The Way I Feel [0:05:58.18]
08. Songs Of Yesterday [0:05:33.62]
09. A Little More [0:03:17.54]
10. Too Far [0:05:31.02]
11. How Many Times [0:03:36.71]
12. I Won't Hide [0:01:35.10]
Exact Audio Copy V1.0 beta 1 from 15. November 2010

Отчёт EAC об извлечении, выполненном 2. октября 2012, 12:00

Eclipse / The Truth And A Little More

Дисковод: Optiarc DVD RW AD-7261S Adapter: 1 ID: 1

Режим чтения : ДостоверностьИспользование точного потока : ДаОтключение кэша аудио : ДаИспользование указателей C2 : Нет

Коррекция смещения при чтении : 48Способность читать области Lead-in и Lead-out : НетЗаполнение пропущенных сэмплов тишиной : ДаУдаление блоков с тишиной в начале и конце : НетПри вычислениях CRC использовались нулевые сэмплы : ДаИнтерфейс : Встроенный Win32-интерфейс для Win NT/2000

Выходной формат : Monkey's Audio (без потерь)Выбранный битрейт : Normal Lossless CompressionКачество : ВысокийДобавление ID3-тега : ДаУтилита сжатия : C:\Program Files\Monkey's Audio\MAC.exe

TOC извлечённого CD

Трек | Старт | Длительность | Начальный сектор | Конечный сектор --------------------------------------------------------------------- 1 | 0:00.00 | 3:15.31 | 0 | 14655 2 | 3:15.31 | 3:53.18 | 14656 | 32148 3 | 7:08.49 | 3:50.66 | 32149 | 49464 4 | 10:59.40 | 5:40.21 | 49465 | 74985 5 | 16:39.61 | 3:58.05 | 74986 | 92840 6 | 20:37.66 | 3:54.21 | 92841 | 110411 7 | 24:32.12 | 5:58.18 | 110412 | 137279 8 | 30:30.30 | 5:33.62 | 137280 | 162316 9 | 36:04.17 | 3:17.54 | 162317 | 177145 10 | 39:21.71 | 5:31.02 | 177146 | 201972 11 | 44:52.73 | 3:36.71 | 201973 | 218243 12 | 48:29.69 | 1:35.10 | 218244 | 225378

Характеристики диапазона извлечения и сообщения об ошибках

Выбранный диапазон

Имя файла D:\Downloads\Eclipse - The Truth And A Little More.wav

Пиковый уровень 100.0 % Скорость извлечения 0.1 X Качество диапазона 100.0 % CRC теста ADA18E9C CRC копии ADA18E9C Копирование... OK

Ошибок не произошло

Конец отчёта
Erik Martensson - Vocals, all Rhythm Guitars, Bass
Anders Berlin - Hammond Organ, Keyboards, Drums, Percussion
Magnus Henriksson - Lead Guitars

Special guests:
Mats Olausson - Lead Keyboards
Kee Marcello - Lead Guitar


Трекер:  [ 11-Ноя-2012 19:17 ]

  

Скачать .torrent

Размер .torrent файла 15 KB


Размер: 371 MB
Хэш (hash) релиза: 942a9e129096f8956e5e1afa07c9aece7ddc906d

Еще никто не оставлял запись к записи скачать торрент Eclipse - The Truth And A Little More - 2001, APE . Будь первым!

!Обратная связь