Скачать через торрент музыку Eclipse - Are You Ready To Rock бесплатно без регистрации torrent

Если у вас наблюдаются проблемы со скриншотами, переходом по ссылками, скачиванием торрентов - проблемы в блокировщике рекламы AdBlock. #хорошегоДня!


Статистика раздачи
Размер:  404 MB   |    Зарегистрирован:  4 года 11 месяцев   |    .torrent скачан:  20 раз   |   
Раздают:  1  
   
Загрузка...
 
Автор Сообщение

Galfimbul

avatar Galfimbul


Eclipse / Are You Ready To Rock (Japanese Edition)

Жанр: Melodic Hard Rock
Страна-производитель диска: Japan
Год издания: 2008
Издатель (лейбл): King Records
Номер по каталогу: KICP-1339
Страна: Sweden
Аудиокодек: FLAC (*.flac)
Тип рипа: image+.cue
Битрейт аудио: lossless
Продолжительность: 46:38
Источник (релизер): собственный рип
Наличие сканов в содержимом раздачи: да

Треклист:
1. Breaking My Heart Again - 4:27
2. Hometown Calling - 3:16
3. To Mend a Broken Heart - 4:03
4. Wylde One - 3:56
5. Under The Gun - 4:39
6. Unbreakable - 3:25
7. Hard Time Loving You - 3:38
8. Young Guns - 3:22
9. Million Miles Away - 3:29
10. 2 Souls - 3:34
11. Call Of The Wild - 3:54
12. Haunted-Wanted (Karma) (bonus track) - 4:49
Exact Audio Copy V1.0 beta 3 from 29. August 2011

EAC extraction logfile from 2. October 2012, 18:38

Eclipse / Are You Ready To Rock

Used drive : SlimtypeDVD A DS8A5SH Adapter: 0 ID: 1

Read mode : SecureUtilize accurate stream : YesDefeat audio cache : YesMake use of C2 pointers : No

Read offset correction : 6Overread into Lead-In and Lead-Out : NoFill up missing offset samples with silence : YesDelete leading and trailing silent blocks : NoNull samples used in CRC calculations : YesUsed interface : Native Win32 interface for Win NT & 2000

Used output format : User Defined EncoderSelected bitrate : 320 kBit/sQuality : HighAdd ID3 tag : NoCommand line compressor : C:\Program Files (x86)\Exact Audio Copy\Flac\flac.exeAdditional command line options : -V -8 -T "Date=%year%" -T "Genre=%genre%" %source%

TOC of the extracted CD

Track | Start | Length | Start sector | End sector --------------------------------------------------------- 1 | 0:00.00 | 4:27.67 | 0 | 20091 2 | 4:27.67 | 3:16.65 | 20092 | 34856 3 | 7:44.57 | 4:03.07 | 34857 | 53088 4 | 11:47.64 | 3:56.10 | 53089 | 70798 5 | 15:43.74 | 4:39.22 | 70799 | 91745 6 | 20:23.21 | 3:25.23 | 91746 | 107143 7 | 23:48.44 | 3:38.19 | 107144 | 123512 8 | 27:26.63 | 3:22.13 | 123513 | 138675 9 | 30:49.01 | 3:29.35 | 138676 | 154385 10 | 34:18.36 | 3:34.28 | 154386 | 170463 11 | 37:52.64 | 3:56.62 | 170464 | 188225 12 | 41:49.51 | 4:48.39 | 188226 | 209864

Range status and errors

Selected range

Filename D:\My Music\Eclipse - 2008 Are You Ready To Rock (Japanese Edition)\Eclipse - Are You Ready To Rock.wav

Peak level 98.9 % Extraction speed 4.2 X Range quality 100.0 % Test CRC 7BF979EE Copy CRC 7BF979EE Copy OK

No errors occurred

AccurateRip summary

Track 1 accurately ripped (confidence 1) [24D0CBD7] (AR v1)Track 2 accurately ripped (confidence 1) [369DE83E] (AR v1)Track 3 accurately ripped (confidence 1) [1D56511D] (AR v1)Track 4 accurately ripped (confidence 1) [A1BD1A29] (AR v1)Track 5 accurately ripped (confidence 1) [A4FC4E89] (AR v1)Track 6 accurately ripped (confidence 1) [722222D4] (AR v1)Track 7 accurately ripped (confidence 1) [D0E35784] (AR v1)Track 8 accurately ripped (confidence 1) [03EC8882] (AR v1)Track 9 accurately ripped (confidence 1) [6DC8B9AE] (AR v1)Track 10 accurately ripped (confidence 1) [1B87DF45] (AR v1)Track 11 accurately ripped (confidence 1) [DEF38D1B] (AR v1)Track 12 accurately ripped (confidence 2) [11D3F9F7] (AR v1)

All tracks accurately ripped

End of status report

==== Log checksum B1C635A7E9829FEE0D447534E8D8FBEDA39EB7217ED41F44AE528D75B13FB232 ====
Состав группы:
Erik Martensson (W.E.T., Toby Hitchcock, Lionville, Shining Line) - vocals, guitar, bass, keyboards
Magnus Henriksson (W.E.T., Toby Hitchcock) - lead & acoustic guitar
Johan Berlin - keyboards
Robban Back (W.E.T., Baltimoore, Prey) - drums

Дискография:
2001 - The Truth And A Little More
2004 - Second To None
2008 - Are You Ready To Rock
2012 - Bleed And Scream (single)
2012 - Bleed & Scream


Трекер:  [ 11-Ноя-2012 19:17 ]

  

Скачать .torrent

Размер .torrent файла 17 KB


Размер: 404 MB
Хэш (hash) релиза: b6509dc9a44cdc961b6a30e9fd587968ae30260c

Еще никто не оставлял запись к записи скачать торрент Eclipse - Are You Ready To Rock . Будь первым!

!Обратная связь