Скачать через торрент музыку Strangeways - Native Sons - бесплатно без регистрации torrent

Если у вас наблюдаются проблемы со скриншотами, переходом по ссылками, скачиванием торрентов - проблемы в блокировщике рекламы AdBlock. #хорошегоДня!


Статистика раздачи
Размер:  402 MB   |    Зарегистрирован:  4 года 9 месяцев   |    .torrent скачан:  25 раз   |   
Раздают:  1  
   
Загрузка...
 
Автор Сообщение

Galfimbul

avatar Galfimbul


STRANGEWAYS / Native Sons

Жанр: AOR Melodic Hard Rock
Страна-производитель диска: UK
Год издания: 2011
Издатель (лейбл): Rock Candy Records Ltd.
Номер по каталогу: Candy100
Страна: UK
Аудиокодек: FLAC (*.flac)
Тип рипа: image+.cue
Битрейт аудио: lossless
Продолжительность: 00:53:02
Источник (релизер): Zak Stevens
Наличие сканов в содержимом раздачи: да
Треклист:
1 Dance With Somebody
2 Only a Fool
3 So Far Away
4 Where Do We Go From Here?
5 Goodnight L.A.
6 Empty Streets
7 Stand Up and Shout
8 Shake the Seven
9 Never Going To Lose It
10 Face to Face
11 Stand Up and Shout/Breaking Down the Barriers (Live)
Exact Audio Copy V1.0 beta 3 from 29. August 2011

Отчёт EAC об извлечении, выполненном 31. октября 2012, 23:28

Strangeways / Native Sons

Дисковод: MATSHITADVD-RAM UJ-861H Adapter: 0 ID: 0

Режим чтения : ДостоверностьИспользование точного потока : ДаОтключение кэша аудио : ДаИспользование указателей C2 : Нет

Коррекция смещения при чтении : 102Способность читать области Lead-in и Lead-out : НетЗаполнение пропущенных сэмплов тишиной : ДаУдаление блоков с тишиной в начале и конце : НетПри вычислениях CRC использовались нулевые сэмплы : ДаИнтерфейс : Встроенный Win32-интерфейс для Win NT/2000

Выходной формат : Внутренние WAV-операцииФормат сэмплов : 44.100 Гц; 16 бит; стерео

TOC извлечённого CD

Трек | Старт | Длительность | Начальный сектор | Конечный сектор --------------------------------------------------------------------- 1 | 0:00.00 | 4:26.25 | 0 | 19974 2 | 4:26.25 | 4:42.64 | 19975 | 41188 3 | 9:09.14 | 4:57.62 | 41189 | 63525 4 | 14:07.01 | 4:00.36 | 63526 | 81561 5 | 18:07.37 | 5:03.21 | 81562 | 104307 6 | 23:10.58 | 4:21.25 | 104308 | 123907 7 | 27:32.08 | 3:29.14 | 123908 | 139596 8 | 31:01.22 | 4:33.62 | 139597 | 160133 9 | 35:35.09 | 4:47.38 | 160134 | 181696 10 | 40:22.47 | 4:46.21 | 181697 | 203167 11 | 45:08.68 | 7:52.50 | 203168 | 238617

Характеристики диапазона извлечения и сообщения об ошибках

Выбранный диапазон

Имя файла D:\Исходные торренты\Strangeways - Native Sons.wav

Пиковый уровень 99.6 % Скорость извлечения 2.5 X Качество диапазона 99.9 % CRC теста 2E1FDA2A CRC копии 2E1FDA2A Копирование... OK

Ошибок не произошло

AccurateRip: сводка

Трек 1 : извлечено точно (доверие 2) [011E9DB4] (AR v1)Трек 2 : извлечено точно (доверие 2) [6A5AD329] (AR v1)Трек 3 : извлечено точно (доверие 2) [ADEE1A3F] (AR v1)Трек 4 : извлечено точно (доверие 2) [E216C9D9] (AR v1)Трек 5 : извлечено точно (доверие 2) [99043F7C] (AR v1)Трек 6 : извлечено точно (доверие 2) [936EC7C9] (AR v1)Трек 7 : извлечено точно (доверие 2) [B9C90B3B] (AR v1)Трек 8 : извлечено точно (доверие 2) [272263B9] (AR v1)Трек 9 : извлечено точно (доверие 2) [3F9EDD2A] (AR v1)Трек 10 : извлечено точно (доверие 2) [70356766] (AR v1)Трек 11 : извлечено точно (доверие 2) [0762A693] (AR v1)

Все треки извлечены точно

Конец отчёта


Трекер:  [ 11-Ноя-2012 19:17 ]

  

Скачать .torrent

Размер .torrent файла 17 KB


Размер: 402 MB
Хэш (hash) релиза: 2d852d0cd4727a1ead123d9dcb9016d1f55d5b8a

Еще никто не оставлял запись к записи скачать торрент Strangeways - Native Sons - . Будь первым!

!Обратная связь