Скачать через торрент музыку AOR - L.A Concession - 2000 бесплатно без регистрации torrent

Если у вас наблюдаются проблемы со скриншотами, переходом по ссылками, скачиванием торрентов - проблемы в блокировщике рекламы AdBlock. #хорошегоДня!


Статистика раздачи
Размер:  552 MB   |    Зарегистрирован:  4 года 9 месяцев   |    .torrent скачан:  11 раз   |   
Раздают:  1  
   
Загрузка...
 
Автор Сообщение

Galfimbul

avatar Galfimbul


AOR / L.A Concession (2000)

Жанр: Westcoast/AOR
Страна-производитель диска: Germany
Год издания: 2006
Издатель (лейбл): MTM Music
Номер по каталогу: 0681-169
Страна: France
Аудиокодек: FLAC (*.flac)
Тип рипа: image+.cue
Битрейт аудио: lossless
Продолжительность: 77:33
Источник (релизер): собственный рип
Наличие сканов в содержимом раздачи: да

Треклист:
1. Never Gonna Let Her Go - 4:29
2. On Dangerous Ground - 4:21
3. Caught Inside Your Heart - 5:29
4. Worlds Away - 5:18
5. In My Crystal Ball - 5:17
6. The Way Of The Night - 4:29
7. Leave Her To Heaven - 4:26
8. Only In My Dreams - 5:11
9. From L.A To Tokyo - 5:03
10. Lost In Your Eyes - 4:00
11. Don't Let Her Go - 4:59
12. Love Has Found Its Way - 4:17
bonus tracks
13. Can One Of Your Kiss Do All This? - 6:09
14. Secrets In Her Heart - 3:54
15. The Spark Of My Soul - 4:20
16. Never Gonna Let Her Go (Instumental Version) - 5:51

Ремастированное переиздание первого альбома AOR. Ранее он был доступен только самиздатом на CD-R.
Exact Audio Copy V1.0 beta 3 from 29. August 2011

EAC extraction logfile from 9. October 2012, 0:17

AOR / L.A Concession

Used drive : SlimtypeDVD A DS8A5SH Adapter: 0 ID: 1

Read mode : SecureUtilize accurate stream : YesDefeat audio cache : YesMake use of C2 pointers : No

Read offset correction : 6Overread into Lead-In and Lead-Out : NoFill up missing offset samples with silence : YesDelete leading and trailing silent blocks : NoNull samples used in CRC calculations : YesUsed interface : Native Win32 interface for Win NT & 2000

Used output format : User Defined EncoderSelected bitrate : 320 kBit/sQuality : HighAdd ID3 tag : NoCommand line compressor : C:\Program Files (x86)\Exact Audio Copy\Flac\flac.exeAdditional command line options : -V -8 -T "Date=%year%" -T "Genre=%genre%" %source%

TOC of the extracted CD

Track | Start | Length | Start sector | End sector --------------------------------------------------------- 1 | 0:00.00 | 4:29.03 | 0 | 20177 2 | 4:29.03 | 4:21.01 | 20178 | 39753 3 | 8:50.04 | 5:29.22 | 39754 | 64450 4 | 14:19.26 | 5:18.53 | 64451 | 88353 5 | 19:38.04 | 5:17.37 | 88354 | 112165 6 | 24:55.41 | 4:29.26 | 112166 | 132366 7 | 29:24.67 | 4:26.22 | 132367 | 152338 8 | 33:51.14 | 5:11.33 | 152339 | 175696 9 | 39:02.47 | 5:03.03 | 175697 | 198424 10 | 44:05.50 | 4:00.67 | 198425 | 216491 11 | 48:06.42 | 4:59.08 | 216492 | 238924 12 | 53:05.50 | 4:17.35 | 238925 | 258234 13 | 57:23.10 | 6:09.33 | 258235 | 285942 14 | 63:32.43 | 3:54.63 | 285943 | 303555 15 | 67:27.31 | 4:20.70 | 303556 | 323125 16 | 71:48.26 | 5:51.29 | 323126 | 349479

Range status and errors

Selected range

Filename D:\My Music\AOR - 2000 L.A Concession\AOR - L.A Concession.wav

Peak level 100.0 % Extraction speed 5.1 X Range quality 100.0 % Test CRC BF9976E6 Copy CRC BF9976E6 Copy OK

No errors occurred

AccurateRip summary

Track 1 accurately ripped (confidence 2) [7C573626] (AR v1)Track 2 accurately ripped (confidence 2) [1D81C880] (AR v1)Track 3 accurately ripped (confidence 2) [E427B5CD] (AR v1)Track 4 accurately ripped (confidence 2) [1702D8F2] (AR v1)Track 5 accurately ripped (confidence 2) [21D58750] (AR v1)Track 6 accurately ripped (confidence 2) [6732AD63] (AR v1)Track 7 accurately ripped (confidence 2) [74F5815E] (AR v1)Track 8 accurately ripped (confidence 2) [10BB09CA] (AR v1)Track 9 accurately ripped (confidence 2) [8FE91CAA] (AR v1)Track 10 accurately ripped (confidence 2) [570B975B] (AR v1)Track 11 accurately ripped (confidence 2) [51DDED02] (AR v1)Track 12 accurately ripped (confidence 2) [B6CCAD3E] (AR v1)Track 13 accurately ripped (confidence 2) [AC4A0877] (AR v1)Track 14 accurately ripped (confidence 2) [F221119B] (AR v1)Track 15 accurately ripped (confidence 2) [CBC30550] (AR v1)Track 16 accurately ripped (confidence 2) [49EFF759] (AR v1)

All tracks accurately ripped

End of status report

==== Log checksum 0C26F10CD16DE382AE078B14C594FC03F7426DE6886BC5FB5C02A1C3BE1AA35D ====
Frédéric SLAMA - guitars & keyboards
Lead Vocals:
John FLUKER, Doug St. JOHN, David CHAMBERLIN, Kristoffer LAGERSTRÖM
Guitars:
Tommy DENANDER, Steve LUKATHER, Michael THOMPSON, Peter FRIESTEDT, Michael LANDAU
Keyboards:
Peter HUME, David DIGGS
Bass:
Tony FRANKLIN, Hussain JIFFRY
Drums:
Vinnie COLAIUTA, Greg BISSONETTE, Carlos VEGA, Jeff PORCARO
Percussion:
Lenny CASTRO
Saxophone:
Tom SAVIANO, Dan HIGGINS
Backing vocals:
Steve GEORGE, Richard PAGE
2000 - L.A Concession
2001 - Next Stop: L.A
2002 - L.A Reflection
2003 - Dreaming Of L.A
2004 - Nothing But The Best (compilation)
2006 - L.A Attraction
2009 - Journey To L.A
2010 - L.A Ambition - The Best Of AOR 2000-2010 (compilation)
2012 - The Colors Of L.A
2012 - L.A Temptation


Трекер:  [ 11-Ноя-2012 19:17 ]

  

Скачать .torrent

Размер .torrent файла 11 KB


Размер: 552 MB
Хэш (hash) релиза: f8b50daaba3a6f6953957ebc3161f491e9ca8d15

Еще никто не оставлял запись к записи скачать торрент AOR - L.A Concession - 2000 . Будь первым!

!Обратная связь