Скачать через торрент музыку Jaded Heart - Helluva Time - 2005, FLAC бесплатно без регистрации torrent

Если у вас наблюдаются проблемы со скриншотами, переходом по ссылками, скачиванием торрентов - проблемы в блокировщике рекламы AdBlock. #хорошегоДня!


Статистика раздачи
Размер:  481 MB   |    Зарегистрирован:  4 года 9 месяцев   |    .torrent скачан:  19 раз   |   
Раздают:  1  
   
Загрузка...
 
Автор Сообщение

Galfimbul

avatar Galfimbul


JADED HEART/ Helluva Time

Жанр: Melodic Hard Rock
Страна-производитель диска: Italy
Год издания: 2005
Издатель (лейбл): Frontiers Records
Номер по каталогу: FR CD 262
Страна: Germany
Аудиокодек: FLAC (*.flac)
Тип рипа: image+.cue
Битрейт аудио: lossless
Продолжительность: 01:01:30
Источник (релизер): Zak Stevens
Наличие сканов в содержимом раздачи: да
Треклист:
1. Tomorrow Comes
2. Hole In My Heart
3. Somewhere
4. Dreams You'll Never See
5. Who's Foolin'
6. Paid My Dues
7. Without You
8. Love & Desire
9. No One
10. Shores Of Paradise
11. Frozen Heart
12. Love To Live
Exact Audio Copy V1.0 beta 3 from 29. August 2011

Отчёт EAC об извлечении, выполненном 3. ноября 2012, 20:45

Jaded Heart / Helluva Time

Дисковод: MATSHITADVD-RAM UJ-861H Adapter: 0 ID: 0

Режим чтения : ДостоверностьИспользование точного потока : ДаОтключение кэша аудио : ДаИспользование указателей C2 : Нет

Коррекция смещения при чтении : 102Способность читать области Lead-in и Lead-out : НетЗаполнение пропущенных сэмплов тишиной : ДаУдаление блоков с тишиной в начале и конце : НетПри вычислениях CRC использовались нулевые сэмплы : ДаИнтерфейс : Встроенный Win32-интерфейс для Win NT/2000

Выходной формат : Внутренние WAV-операцииФормат сэмплов : 44.100 Гц; 16 бит; стерео

TOC извлечённого CD

Трек | Старт | Длительность | Начальный сектор | Конечный сектор --------------------------------------------------------------------- 1 | 0:00.00 | 5:31.13 | 0 | 24837 2 | 5:31.13 | 6:03.62 | 24838 | 52124 3 | 11:35.00 | 4:41.21 | 52125 | 73220 4 | 16:16.21 | 4:37.47 | 73221 | 94042 5 | 20:53.68 | 4:37.73 | 94043 | 114890 6 | 25:31.66 | 4:51.08 | 114891 | 136723 7 | 30:22.74 | 5:06.54 | 136724 | 159727 8 | 35:29.53 | 5:15.39 | 159728 | 183391 9 | 40:45.17 | 4:55.00 | 183392 | 205516 10 | 45:40.17 | 5:05.57 | 205517 | 228448 11 | 50:45.74 | 5:26.69 | 228449 | 252967 12 | 56:12.68 | 5:17.10 | 252968 | 276752

Характеристики диапазона извлечения и сообщения об ошибках

Выбранный диапазон

Имя файла D:\Исходные торренты\Jaded Heart - Helluva Time.wav

Пиковый уровень 97.9 % Скорость извлечения 2.6 X Качество диапазона 100.0 % CRC теста 778FCBFC CRC копии 778FCBFC Копирование... OK

Ошибок не произошло

AccurateRip: сводка

Трек 1 : извлечено точно (доверие 3) [59E1DB42] (AR v1)Трек 2 : извлечено точно (доверие 2) [34490A13] (AR v2)Трек 3 : извлечено точно (доверие 2) [B423189E] (AR v2)Трек 4 : извлечено точно (доверие 2) [C9F8E62B] (AR v2)Трек 5 : извлечено точно (доверие 2) [045B7C8D] (AR v2)Трек 6 : извлечено точно (доверие 2) [B520B94A] (AR v2)Трек 7 : извлечено точно (доверие 2) [0B9CA588] (AR v2)Трек 8 : извлечено точно (доверие 2) [19E3D562] (AR v2)Трек 9 : извлечено точно (доверие 2) [4DDFB05E] (AR v2)Трек 10 : извлечено точно (доверие 2) [95C21FC9] (AR v2)Трек 11 : извлечено точно (доверие 2) [99EE6C5F] (AR v2)Трек 12 : извлечено точно (доверие 2) [A0CFA252] (AR v2)

Все треки извлечены точно

Конец отчёта
Johan Fahlberg Vocals
Barish Kepic Guitars
Michael Muller Bass
Henning Wanner Keyboards
Axel Kruse Drums


Трекер:  [ 11-Ноя-2012 19:16 ]

  

Скачать .torrent

Размер .torrent файла 20 KB


Размер: 481 MB
Хэш (hash) релиза: fdd0a3d92e656fb8a555332cccbd0568a641113a

Еще никто не оставлял запись к записи скачать торрент Jaded Heart - Helluva Time - 2005, FLAC . Будь первым!

!Обратная связь