Скачать через торрент музыку Snowblind - Snowblind - 1985 бесплатно без регистрации torrent

Если у вас наблюдаются проблемы со скриншотами, переходом по ссылками, скачиванием торрентов - проблемы в блокировщике рекламы AdBlock. #хорошегоДня!


Статистика раздачи
Размер:  273 MB   |    Зарегистрирован:  4 года 9 месяцев   |    .torrent скачан:  13 раз   |   
Раздают:  1  
   
Загрузка...
 
Автор Сообщение

Galfimbul

avatar Galfimbul


Snowblind / Snowblind

Жанр: AOR/Melodic Rock
Страна-производитель диска: Germany
Год издания: 1985 (Reissued 1994)
Издатель (лейбл): Mausoleum
Номер по каталогу: 704142.2
Аудиокодек: FLAC (*.flac)
Тип рипа: image+.cue
Битрейт аудио: lossless
Продолжительность: 37:17
Источник (релизер): slayer19
Наличие сканов в содержимом раздачи: да (All Scans)
Треклист:
1. Walk The Line (03:44)
2. Chasing The Dragon (04:16)
3. Possession (05:10)
4. Sierra (04:21)
5. Now Is The Hour (05:23)
6. Losing My Place (07:01)
7. Hold On (04:09)
8. Possession (Reprise) (03:13)
Exact Audio Copy V1.0 beta 3 from 29. August 2011

Отчёт EAC об извлечении, выполненном 3. ноября 2012, 12:10

Snowblind / Snowblind

Дисковод: Optiarc DVD RW AD-7200A Adapter: 0 ID: 0

Режим чтения : ДостоверностьИспользование точного потока : ДаОтключение кэша аудио : ДаИспользование указателей C2 : Нет

Коррекция смещения при чтении : 48Способность читать области Lead-in и Lead-out : НетЗаполнение пропущенных сэмплов тишиной : ДаУдаление блоков с тишиной в начале и конце : НетПри вычислениях CRC использовались нулевые сэмплы : ДаИнтерфейс : Встроенный Win32-интерфейс для Win NT/2000

Выходной формат : Пользовательский кодировщикВыбранный битрейт : 128 kBit/sКачество : ВысокийДобавление ID3-тега : НетУтилита сжатия : C:\Program Files\FLAC\FLAC frontend.exe

TOC извлечённого CD

Трек | Старт | Длительность | Начальный сектор | Конечный сектор --------------------------------------------------------------------- 1 | 0:00.00 | 3:43.65 | 0 | 16789 2 | 3:43.65 | 4:16.25 | 16790 | 36014 3 | 8:00.15 | 5:09.62 | 36015 | 59251 4 | 13:10.02 | 4:20.53 | 59252 | 78804 5 | 17:30.55 | 5:22.55 | 78805 | 103009 6 | 22:53.35 | 7:01.15 | 103010 | 134599 7 | 29:54.50 | 4:09.12 | 134600 | 153286 8 | 34:03.62 | 3:13.20 | 153287 | 167781

Характеристики диапазона извлечения и сообщения об ошибках

Выбранный диапазон

Имя файла D:\МОИ ФАЙЛЫ\LOSSLESS\slayer19\Snowblind - Snowblind.wav

Пиковый уровень 99.6 % Скорость извлечения 3.6 X Качество диапазона 100.0 % CRC теста B1ED473C CRC копии B1ED473C Копирование... OK

Ошибок не произошло

AccurateRip: сводка

Трек 1 отсутствует в базе данныхТрек 2 отсутствует в базе данныхТрек 3 отсутствует в базе данныхТрек 4 отсутствует в базе данныхТрек 5 отсутствует в базе данныхТрек 6 отсутствует в базе данныхТрек 7 отсутствует в базе данныхТрек 8 отсутствует в базе данных

Ни одного трека нет в базе AccurateRip

Конец отчёта

---- CUETools DB Plugin V2.1.3

[CTDB TOCID: Fu5X3mlbcXzXtpMNjFEEXm6CDBo-] disk not present in database, Submit result: Fu5X3mlbcXzXtpMNjFEEXm6CDBo- has been uploaded

==== Контрольная сумма отчёта B5DD7374C27058BCCA326D6898E72A79546814C72601786F10EBD17449064CA2 ====


Трекер:  [ 11-Ноя-2012 19:16 ]

  

Скачать .torrent

Размер .torrent файла 11 KB


Размер: 273 MB
Хэш (hash) релиза: 1a234251804b925ab492a8f121c0cf5ec64f2fc6

Еще никто не оставлял запись к записи скачать торрент Snowblind - Snowblind - 1985 . Будь первым!

!Обратная связь